Tags
Language
Tags
July 2024
Su Mo Tu We Th Fr Sa
30 1 2 3 4 5 6
7 8 9 10 11 12 13
14 15 16 17 18 19 20
21 22 23 24 25 26 27
28 29 30 31 1 2 3

Ninja Kamui - 01

Posted By: Otaku
Ninja Kamui - 01

Ninja Kamui - 01
MKV | 1920x1080 | 日本語 / English | H265 @ 2437 kbps | AAC @ 192.0 kbps | 23 min 13 s | 460 MiB
Subtitles: Português, Español, English



[Erai-raws] Ninja Kamui - 01 [1080p][HEVC][E9388A03].mkv (459.8 MB)



General
Unique ID : 99849680613763895891738482897339742637 (0x4B1E5956F5C56448A92747FF9E0EF9AD)
Complete name : ./[Erai-raws] Ninja Kamui - 01 [1080p][HEVC][E9388A03].mkv
Format : Matroska
Format version : Version 4
File size : 460 MiB
Duration : 23 min 13 s
Overall bit rate : 2 768 kb/s
Encoded date : UTC 2024-05-16 05:11:45
Writing application : mkvmerge v84.0 ('Sleeper') 64-bit
Writing library : libebml v1.4.5 + libmatroska v1.7.1
Attachments : OpenSans-Italic.ttf / OpenSans-Light.ttf / OpenSans-Regular.ttf / OpenSans-Semibold.ttf / AdobeArabic-Bold.otf

Video
ID : 1
Format : HEVC
Format/Info : High Efficiency Video Coding
Format profile : Main 10@L5@High
Codec ID : V_MPEGH/ISO/HEVC
Duration : 23 min 13 s
Bit rate : 2 438 kb/s
Width : 1 920 pixels
Height : 1 080 pixels
Display aspect ratio : 16:9
Frame rate mode : Constant
Frame rate : 23.976 (24000/1001) FPS
Color space : YUV
Chroma subsampling : 4:2:0
Bit depth : 10 bits
Bits/(Pixel*Frame) : 0.049
Stream size : 405 MiB (88%)
Writing library : x265 3.5+156+43-607e8223a:[Windows][MSVC 1928][64 bit] 10bit
Encoding settings : cpuid=1176575 / frame-threads=5 / numa-pools=32 / wpp / pmode / pme / no-psnr / no-ssim / log-level=2 / csv / csv-log-level=0 / input-csp=1 / input-res=1920x1080 / interlace=0 / total-frames=33415 / level-idc=50 / high-tier=1 / uhd-bd=0 / ref=6 / no-allow-non-conformance / no-repeat-headers / annexb / no-aud / no-eob / no-eos / no-hrd / info / hash=0 / temporal-layers=0 / no-open-gop / min-keyint=23 / keyint=250 / gop-lookahead=0 / bframes=16 / b-adapt=2 / b-pyramid / bframe-bias=0 / rc-lookahead=60 / lookahead-slices=0 / scenecut=40 / no-hist-scenecut / radl=0 / no-splice / no-intra-refresh / ctu=32 / min-cu-size=8 / no-rect / no-amp / max-tu-size=32 / tu-inter-depth=4 / tu-intra-depth=4 / limit-tu=0 / rdoq-level=2 / dynamic-rd=0.00 / no-ssim-rd / signhide / no-tskip / nr-intra=0 / nr-inter=0 / no-constrained-intra / no-strong-intra-smoothing / max-merge=5 / limit-refs=1 / limit-modes / me=3 / subme=7 / merange=57 / temporal-mvp / no-frame-dup / no-hme / weightp / weightb / analyze-src-pics / deblock=-1:-1 / no-sao / no-sao-non-deblock / rd=6 / selective-sao=0 / no-early-skip / no-rskip / no-fast-intra / no-tskip-fast / no-cu-lossless / b-intra / no-splitrd-skip / rdpenalty=0 / psy-rd=1.50 / psy-rdoq=2.00 / no-rd-refine / no-lossless / cbqpoffs=-2 / crqpoffs=-2 / rc=crf / crf=19.0 / qcomp=0.60 / qpstep=4 / stats-write=0 / stats-read=0 / vbv-maxrate=100000 / vbv-bufsize=100000 / vbv-init=0.9 / min-vbv-fullness=50.0 / max-vbv-fullness=80.0 / crf-max=0.0 / crf-min=0.0 / ipratio=1.40 / pbratio=1.30 / aq-mode=5 / aq-strength=0.70 / aq-strength-edge=0.70 / aq-bias-strength=1.00 / aq-bias-strength-edge=1.00 / no-aq-fast-edge / no-cutree / zone-count=0 / no-strict-cbr / qg-size=32 / no-rc-grain / qpmax=69 / qpmin=0 / no-const-vbv / sar=0 / overscan=0 / videoformat=5 / range=0 / colorprim=2 / transfer=2 / colormatrix=2 / chromaloc=0 / display-window=0 / cll=0,0 / min-luma=0 / max-luma=1023 / log2-max-poc-lsb=8 / vui-timing-info / vui-hrd-info / slices=1 / no-opt-qp-pps / no-opt-ref-list-length-pps / no-multi-pass-opt-rps / scenecut-bias=0.05 / no-opt-cu-delta-qp / no-aq-motion / aq-auto=0 / no-hdr10 / no-hdr10-opt / no-dhdr10-opt / no-idr-recovery-sei / analysis-reuse-level=0 / analysis-save-reuse-level=0 / analysis-load-reuse-level=0 / scale-factor=0 / refine-intra=4 / refine-inter=0 / refine-mv=3 / refine-ctu-distortion=0 / no-limit-sao / ctu-info=0 / no-lowpass-dct / refine-analysis-type=0 / copy-pic=1 / max-ausize-factor=1.0 / dynamic-refine / no-single-sei / no-hevc-aq / no-svt / no-field / qp-adaptation-range=1.00 / scenecut-aware-qp=0 / conformance-window-offsets / right=0 / bottom=0 / decoder-max-rate=0 / no-vbv-live-multi-pass / no-mcstf / no-sbrc
Language : Japanese
Default : Yes
Forced : No

Audio #1
ID : 2
Format : AAC LC
Format/Info : Advanced Audio Codec Low Complexity
Codec ID : A_AAC-2
Duration : 23 min 13 s
Bit rate : 192 kb/s
Channel(s) : 2 channels
Channel layout : L R
Sampling rate : 48.0 kHz
Frame rate : 46.875 FPS (1024 SPF)
Compression mode : Lossy
Stream size : 31.9 MiB (7%)
Language : Japanese
Default : Yes
Forced : No

Audio #2
ID : 3
Format : AAC LC
Format/Info : Advanced Audio Codec Low Complexity
Codec ID : A_AAC-2
Duration : 23 min 13 s
Bit rate : 128 kb/s
Channel(s) : 2 channels
Channel layout : L R
Sampling rate : 48.0 kHz
Frame rate : 46.875 FPS (1024 SPF)
Compression mode : Lossy
Stream size : 21.3 MiB (5%)
Language : English
Default : Yes
Forced : No

Text #1
ID : 4
Format : ASS
Codec ID : S_TEXT/ASS
Codec ID/Info : Advanced Sub Station Alpha
Duration : 19 min 28 s
Bit rate : 56 b/s
Frame rate : 0.130 FPS
Count of elements : 152
Compression mode : Lossless
Stream size : 8.07 KiB (0%)
Title : English
Language : English
Default : Yes
Forced : No

Text #2
ID : 5
Format : ASS
Codec ID : S_TEXT/ASS
Codec ID/Info : Advanced Sub Station Alpha
Duration : 22 min 53 s
Bit rate : 93 b/s
Frame rate : 0.250 FPS
Count of elements : 343
Compression mode : Lossless
Stream size : 15.8 KiB (0%)
Title : English(CC)
Language : English
Default : No
Forced : No

Text #3
ID : 6
Format : ASS
Codec ID : S_TEXT/ASS
Codec ID/Info : Advanced Sub Station Alpha
Duration : 19 min 42 s
Bit rate : 55 b/s
Frame rate : 0.120 FPS
Count of elements : 142
Compression mode : Lossless
Stream size : 8.00 KiB (0%)
Title : Portuguese(Brazil)
Language : Portuguese
Default : No
Forced : No

Text #4
ID : 7
Format : ASS
Codec ID : S_TEXT/ASS
Codec ID/Info : Advanced Sub Station Alpha
Duration : 19 min 42 s
Bit rate : 52 b/s
Frame rate : 0.120 FPS
Count of elements : 142
Compression mode : Lossless
Stream size : 7.56 KiB (0%)
Title : Spanish(Latin_America)
Language : Spanish
Default : No
Forced : No





Ninja Kamui - 01


Ninja Kamui - 01


Ninja Kamui - 01


Ninja Kamui - 01