Tags
Language
Tags
July 2024
Su Mo Tu We Th Fr Sa
30 1 2 3 4 5 6
7 8 9 10 11 12 13
14 15 16 17 18 19 20
21 22 23 24 25 26 27
28 29 30 31 1 2 3

Nozomanu Fushi no Boukensha 10 mkv Nozomanu Fushi no Boukensha 10 mkv" yEnc

Posted By: Otaku
Nozomanu Fushi no Boukensha 10 mkv Nozomanu Fushi no Boukensha 10 mkv" yEnc

Nozomanu Fushi no Boukensha 10 mkv Nozomanu Fushi no Boukensha 10 mkv" yEnc
MKV | 1920x1080 | 日本語 | H264 @ 5719 kbps | AAC @ 127.999 kbps | 23 min 42 s | 992 MiB
Subtitles: 日本語, English



[New-raws] Nozomanu Fushi no Boukensha - 10 [1080p] [NF].mkv (991.7 MB)



General
Unique ID : 263025267522923598428390554875491730845 (0xC5E0D2EA2567EB163981B1D83AEB459D)
Complete name : ./[New-raws] Nozomanu Fushi no Boukensha - 10 [1080p] [NF].mkv
Format : Matroska
Format version : Version 4
File size : 992 MiB
Duration : 23 min 42 s
Overall bit rate : 5 849 kb/s
Encoded date : UTC 2024-03-08 13:44:02
Writing application : mkvmerge v26.0.0 ('In The Game') 64-bit
Writing library : libebml v1.3.6 + libmatroska v1.4.9

Video
ID : 2
Format : AVC
Format/Info : Advanced Video Codec
Format profile : High@L4
Format settings : CABAC / 3 Ref Frames
Format settings, CABAC : Yes
Format settings, Reference frames : 3 frames
Codec ID : V_MPEG4/ISO/AVC
Duration : 23 min 42 s
Bit rate : 5 719 kb/s
Width : 1 920 pixels
Height : 1 080 pixels
Display aspect ratio : 16:9
Frame rate mode : Constant
Frame rate : 23.976 (24000/1001) FPS
Color space : YUV
Chroma subsampling : 4:2:0
Bit depth : 8 bits
Scan type : Progressive
Bits/(Pixel*Frame) : 0.115
Stream size : 970 MiB (98%)
Default : Yes
Forced : No

Audio
ID : 3
Format : AAC LC SBR
Format/Info : Advanced Audio Codec Low Complexity with Spectral Band Replication
Commercial name : HE-AAC
Format settings : Explicit
Codec ID : A_AAC-2
Duration : 23 min 42 s
Bit rate : 128 kb/s
Channel(s) : 2 channels
Channel layout : L R
Sampling rate : 48.0 kHz
Frame rate : 23.438 FPS (2048 SPF)
Compression mode : Lossy
Delay relative to video : -83 ms
Stream size : 21.7 MiB (2%)
Language : Japanese
Default : Yes
Forced : No

Text #1
ID : 1
Format : UTF-8
Codec ID : S_TEXT/UTF8
Codec ID/Info : UTF-8 Plain Text
Duration : 23 min 36 s
Bit rate : 76 b/s
Frame rate : 0.266 FPS
Count of elements : 376
Stream size : 13.3 KiB (0%)
Language : English
Default : Yes
Forced : No

Text #2
ID : 4
Format : UTF-8
Codec ID : S_TEXT/UTF8
Codec ID/Info : UTF-8 Plain Text
Duration : 23 min 30 s
Bit rate : 99 b/s
Frame rate : 0.287 FPS
Count of elements : 405
Stream size : 17.1 KiB (0%)
Language : Japanese
Default : No
Forced : No





Nozomanu Fushi no Boukensha 10 mkv Nozomanu Fushi no Boukensha 10 mkv" yEnc


Nozomanu Fushi no Boukensha 10 mkv Nozomanu Fushi no Boukensha 10 mkv" yEnc


Nozomanu Fushi no Boukensha 10 mkv Nozomanu Fushi no Boukensha 10 mkv" yEnc


Nozomanu Fushi no Boukensha 10 mkv Nozomanu Fushi no Boukensha 10 mkv" yEnc