Tags
Language
Tags
July 2024
Su Mo Tu We Th Fr Sa
30 1 2 3 4 5 6
7 8 9 10 11 12 13
14 15 16 17 18 19 20
21 22 23 24 25 26 27
28 29 30 31 1 2 3

One Piece 1108 (WEB 1080p

Posted By: Otaku
One Piece 1108 (WEB 1080p

One Piece 1108 (WEB 1080p
MKV | 1920x1080 | 日本語 | H264 @ 8000 kbps | AAC @ 128.0 kbps | 23 min 50 s | 1.37 GiB
Subtitles: English



[HatSubs] One Piece 1108 (WEB 1080p) [6B1A39C0].mkv (1.4 GB)



General
Unique ID : 12961759679137931538872116587950345976 (0x9C058179472731CF08CB1152C898EF8)
Complete name : ./[HatSubs] One Piece 1108 (WEB 1080p) [6B1A39C0].mkv
Format : Matroska
Format version : Version 4
File size : 1.37 GiB
Duration : 23 min 50 s
Overall bit rate : 8 249 kb/s
Movie name : [HatSubs] One Piece 1108 (WEB 1080p)
Encoded date : UTC 2024-06-09 13:04:02
Writing application : mkvmerge v78.0 ('Running') 64-bit
Writing library : libebml v1.4.4 + libmatroska v1.7.1
Attachments : 3666-font.otf / ATTFShinGoProBold.ttf / candara.ttf / candarab_0.ttf / candaraz_0.ttf / DFPGiHi-W7.TTF / FOT-AokaneStd-EB.otf / FOT-KafuTechno Std H.otf / FOT-SeuratCapie_Pro.otf / GyoshoStd-R.TTF

Video
ID : 1
Format : AVC
Format/Info : Advanced Video Codec
Format profile : High@L4
Format settings : CABAC / 4 Ref Frames
Format settings, CABAC : Yes
Format settings, Reference frames : 4 frames
Codec ID : V_MPEG4/ISO/AVC
Duration : 23 min 50 s
Bit rate : 8 000 kb/s
Width : 1 920 pixels
Height : 1 080 pixels
Display aspect ratio : 16:9
Frame rate mode : Constant
Frame rate : 23.976 (24000/1001) FPS
Color space : YUV
Chroma subsampling : 4:2:0
Bit depth : 8 bits
Scan type : Progressive
Bits/(Pixel*Frame) : 0.161
Stream size : 1.33 GiB (97%)
Writing library : x264 core 164
Encoding settings : cabac=1 / ref=4 / deblock=1:1:1 / analyse=0x3:0x113 / me=hex / subme=8 / psy=1 / psy_rd=0.40:0.00 / mixed_ref=1 / me_range=16 / chroma_me=1 / trellis=2 / 8x8dct=1 / cqm=0 / deadzone=21,11 / fast_pskip=1 / chroma_qp_offset=-2 / threads=12 / lookahead_threads=2 / sliced_threads=0 / nr=0 / decimate=1 / interlaced=0 / bluray_compat=0 / constrained_intra=0 / bframes=0 / weightp=2 / keyint=96 / keyint_min=48 / scenecut=40 / intra_refresh=0 / rc_lookahead=48 / rc=2pass / mbtree=1 / bitrate=8000 / ratetol=1.0 / qcomp=0.60 / qpmin=0 / qpmax=69 / qpstep=4 / cplxblur=20.0 / qblur=0.5 / vbv_maxrate=12000 / vbv_bufsize=18000 / nal_hrd=none / filler=0 / ip_ratio=1.40 / aq=1:0.60
Default : Yes
Forced : No
Color range : Limited
Color primaries : BT.709
Transfer characteristics : BT.709
Matrix coefficients : BT.709

Audio
ID : 2
Format : AAC LC
Format/Info : Advanced Audio Codec Low Complexity
Codec ID : A_AAC-2
Duration : 23 min 50 s
Bit rate : 128 kb/s
Channel(s) : 2 channels
Channel layout : L R
Sampling rate : 44.1 kHz
Frame rate : 43.066 FPS (1024 SPF)
Compression mode : Lossy
Delay relative to video : 3 ms
Stream size : 21.8 MiB (2%)
Language : Japanese
Default : Yes
Forced : No

Text
ID : 3
Format : ASS
Codec ID : S_TEXT/ASS
Codec ID/Info : Advanced Sub Station Alpha
Duration : 23 min 45 s
Bit rate : 805 b/s
Frame rate : 0.404 FPS
Count of elements : 576
Compression mode : Lossless
Stream size : 140 KiB (0%)
Language : English
Default : Yes
Forced : No

Menu
00:00:10.510 : :Opening
00:01:40.601 : :Recap
00:03:04.810 : :Part A
00:12:38.675 : :Part B
00:20:15.674 : :Ending
00:21:45.764 : :Punk Records Library
00:23:15.854 : :Preview





One Piece 1108 (WEB 1080p


One Piece 1108 (WEB 1080p


One Piece 1108 (WEB 1080p


One Piece 1108 (WEB 1080p