Tags
Language
Tags
June 2024
Su Mo Tu We Th Fr Sa
26 27 28 29 30 31 1
2 3 4 5 6 7 8
9 10 11 12 13 14 15
16 17 18 19 20 21 22
23 24 25 26 27 28 29
30 1 2 3 4 5 6

S01E05-Covert Operations

Posted By: Otaku
S01E05-Covert Operations

S01E05-Covert Operations
MKV | 1920x1080 | English / 日本語 | H265 @ 1663 kbps | E-AC-3 @ 224.0 kbps | 22 min 50 s | 341 MiB
Subtitles: English



S01E05-Covert Operations [41341873].mkv (341.1 MB)



General
Unique ID : 202156408623413698713943296704893534312 (0x9815E8780BDB826B7EBAC4DC7FBDC068)
Complete name : ./S01E05-Covert Operations [41341873].mkv
Format : Matroska
Format version : Version 4
File size : 341 MiB
Duration : 22 min 50 s
Overall bit rate : 2 088 kb/s
Movie name : The.Apothecary.Diaries.S01E05.1080p.Dual.Audio.WEBRip.10.bits.DD+.x265-EMBER
Encoded date : UTC 2024-04-10 05:34:46
Writing application : mkvmerge v69.0.0 ('Day And Age') 64-bit
Writing library : libebml v1.4.2 + libmatroska v1.6.4
Cover : Yes
Attachments : cover.jpg / IWAOMINPRO-BD-FATE.TTF / IWAOMINPRO-HV-TR.TTF / IWATA-MINCHO-OLD-PRO-E.OTF / IWATA-MINCHO-OLD-PRO-R-STRP.OTF / POLO-BRUSH.TTF / RiiT_F.otf / STONE-SANS-STD-SEMIBOLD.OTF / STONE-SANS-STD-SEMIBOLD-ITALIC.OTF / THROWMYHANDSUPINTHEAIRV2.TTF / TR-KYOMADOKA.TTF / ALBINO.TTF / BRLNSR.TTF / GNYRWN971.TTF / IWAMINPRO-MD-KAMI.TTF

Video
ID : 1
Format : HEVC
Format/Info : High Efficiency Video Coding
Format profile : Main 10@L4@High
Codec ID : V_MPEGH/ISO/HEVC
Duration : 22 min 50 s
Bit rate : 1 663 kb/s
Width : 1 920 pixels
Height : 1 080 pixels
Display aspect ratio : 16:9
Frame rate mode : Constant
Frame rate : 23.976 (24000/1001) FPS
Color space : YUV
Chroma subsampling : 4:2:0
Bit depth : 10 bits
Bits/(Pixel*Frame) : 0.033
Stream size : 272 MiB (80%)
Title : Presented By EMBER
Writing library : x265 2.4+14-bc0e9bd7c08f5ddc:[Windows][GCC 6.3.0][64 bit] 10bit: KG7x [x265.ru]
Encoding settings : cpuid=1173503 / frame-threads=3 / numa-pools=8 / wpp / no-pmode / no-pme / no-psnr / no-ssim / log-level=2 / input-csp=1 / input-res=1920x1080 / interlace=0 / total-frames=0 / level-idc=40 / high-tier=1 / uhd-bd=0 / ref=4 / no-allow-non-conformance / no-repeat-headers / annexb / no-aud / no-hrd / info / hash=0 / no-temporal-layers / open-gop / min-keyint=23 / keyint=250 / bframes=8 / b-adapt=2 / b-pyramid / bframe-bias=0 / rc-lookahead=60 / lookahead-slices=4 / scenecut=40 / no-intra-refresh / ctu=64 / min-cu-size=8 / rect / no-amp / max-tu-size=32 / tu-inter-depth=2 / tu-intra-depth=2 / limit-tu=4 / rdoq-level=2 / dynamic-rd=0.00 / no-ssim-rd / signhide / no-tskip / nr-intra=0 / nr-inter=0 / no-constrained-intra / no-strong-intra-smoothing / max-merge=3 / limit-refs=3 / limit-modes / me=3 / subme=3 / merange=57 / temporal-mvp / weightp / no-weightb / no-analyze-src-pics / deblock=0:-1 / no-sao / no-sao-non-deblock / rd=4 / no-early-skip / rskip / no-fast-intra / no-tskip-fast / no-cu-lossless / no-b-intra / rdpenalty=0 / psy-rd=1.20 / psy-rdoq=2.00 / no-rd-refine / analysis-mode=0 / no-lossless / cbqpoffs=0 / crqpoffs=0 / rc=crf / crf=21.5 / qcomp=0.60 / qpstep=4 / stats-write=0 / stats-read=0 / vbv-maxrate=30000 / vbv-bufsize=30000 / vbv-init=0.9 / crf-max=0.0 / crf-min=0.0 / ipratio=1.40 / pbratio=1.30 / aq-mode=3 / aq-strength=0.90 / cutree / zone-count=0 / no-strict-cbr / qg-size=32 / no-rc-grain / qpmax=69 / qpmin=0 / sar=0 / overscan=0 / videoformat=5 / range=0 / colorprim=1 / transfer=1 / colormatrix=1 / chromaloc=0 / display-window=0 / max-cll=0,0 / min-luma=0 / max-luma=1023 / log2-max-poc-lsb=8 / vui-timing-info / vui-hrd-info / slices=1 / opt-qp-pps / opt-ref-list-length-pps / no-multi-pass-opt-rps / scenecut-bias=0.05 / no-opt-cu-delta-qp / no-aq-motion / no-hdr / no-hdr-opt / no-dhdr10-opt / refine-level=5 / no-limit-sao / ctu-info=0
Default : Yes
Forced : No
Color range : Limited
Color primaries : BT.709
Transfer characteristics : BT.709
Matrix coefficients : BT.709

Audio #1
ID : 2
Format : E-AC-3
Format/Info : Enhanced AC-3
Commercial name : Dolby Digital Plus
Codec ID : A_EAC3
Duration : 22 min 50 s
Bit rate mode : Constant
Bit rate : 224 kb/s
Channel(s) : 2 channels
Channel layout : L R
Sampling rate : 48.0 kHz
Frame rate : 31.250 FPS (1536 SPF)
Compression mode : Lossy
Stream size : 36.6 MiB (11%)
Title : Japanese 2ch
Language : Japanese
Service kind : Complete Main
Default : No
Forced : No

Audio #2
ID : 3
Format : AAC LC
Format/Info : Advanced Audio Codec Low Complexity
Codec ID : A_AAC-2
Duration : 22 min 50 s
Bit rate : 128 kb/s
Channel(s) : 2 channels
Channel layout : L R
Sampling rate : 44.1 kHz
Frame rate : 43.066 FPS (1024 SPF)
Compression mode : Lossy
Stream size : 20.9 MiB (6%)
Title : English 2ch
Language : English
Default : Yes
Forced : No

Text #1
ID : 4
Format : ASS
Codec ID : S_TEXT/ASS
Codec ID/Info : Advanced Sub Station Alpha
Duration : 22 min 45 s
Bit rate : 17.0 kb/s
Frame rate : 6.385 FPS
Count of elements : 8719
Compression mode : Lossless
Stream size : 2.76 MiB (1%)
Title : Full Subtitles [Half-Baked]
Language : English
Default : No
Forced : No

Text #2
ID : 5
Format : ASS
Codec ID : S_TEXT/ASS
Codec ID/Info : Advanced Sub Station Alpha
Duration : 22 min 45 s
Bit rate : 16.9 kb/s
Frame rate : 6.179 FPS
Count of elements : 8437
Compression mode : Lossless
Stream size : 2.74 MiB (1%)
Title : Signs & Songs
Language : English
Default : Yes
Forced : Yes

Menu
00:00:00.000 : en:OP
00:01:30.007 : en:Episode
00:21:05.057 : en:ED
00:22:35.063 : en:Preview





S01E05-Covert Operations


S01E05-Covert Operations


S01E05-Covert Operations


S01E05-Covert Operations