Tags
Language
Tags
July 2024
Su Mo Tu We Th Fr Sa
30 1 2 3 4 5 6
7 8 9 10 11 12 13
14 15 16 17 18 19 20
21 22 23 24 25 26 27
28 29 30 31 1 2 3

Sasaki to P-chan - 10

Posted By: Otaku
Sasaki to P-chan - 10

Sasaki to P-chan - 10
MKV | 1280x720 | 日本語 | H264 @ 4000 kbps | AAC @ 128.0 kbps | 23 min 41 s | 730 MiB
Subtitles: Português, Deutsch, Русский, Italiano, Français, English, Español, العربية



[Erai-raws] Sasaki to P-chan - 10 [720p][Multiple Subtitle][07CC2435].mkv (729.6 MB)



General
Unique ID : 45155698552489025482177478727733205586 (0x21F8ABD3C6ABBCB9180839579AA1DA52)
Complete name : ./[Erai-raws] Sasaki to P-chan - 10 [720p][Multiple Subtitle][07CC2435].mkv
Format : Matroska
Format version : Version 4
File size : 730 MiB
Duration : 23 min 41 s
Overall bit rate : 4 307 kb/s
Encoded date : UTC 2024-03-08 13:35:57
Writing application : mkvmerge v82.0 ('I'm The President') 64-bit
Writing library : libebml v1.4.5 + libmatroska v1.7.1
Attachments : arialbd.ttf / ARIALBD_0.TTF / arialbi.ttf / arialuni.ttf / Arial_0.ttf / ariblk_0.TTF / calibri.ttf / comicbd.ttf / comic_0.ttf / georgiab.ttf / georgiaz.ttf / georgia_0.ttf / impact_0.ttf / OpenSans-ExtraBold.ttf / OpenSans_Bold.ttf / ROCKEB.TTF / Tahoma_0.ttf / times_0.ttf / trebuc_0.ttf / verdana_0.ttf / AdobeArabic-Bold.otf / AdobeArabic-BoldItalic.otf / AdobeArabic-Italic.otf / AdobeArabic-Regular.otf

Video
ID : 1
Format : AVC
Format/Info : Advanced Video Codec
Format profile : High@L4
Format settings : CABAC / 6 Ref Frames
Format settings, CABAC : Yes
Format settings, Reference frames : 6 frames
Format settings, GOP : N=1
Codec ID : V_MPEG4/ISO/AVC
Duration : 23 min 40 s
Bit rate : 4 000 kb/s
Width : 1 280 pixels
Height : 720 pixels
Display aspect ratio : 16:9
Frame rate mode : Constant
Frame rate : 23.976 (24000/1001) FPS
Color space : YUV
Chroma subsampling : 4:2:0
Bit depth : 8 bits
Scan type : Progressive
Bits/(Pixel*Frame) : 0.181
Stream size : 677 MiB (93%)
Writing library : x264 core 164
Encoding settings : cabac=1 / ref=6 / deblock=1:1:1 / analyse=0x3:0x113 / me=hex / subme=8 / psy=1 / psy_rd=0.40:0.00 / mixed_ref=1 / me_range=16 / chroma_me=1 / trellis=2 / 8x8dct=1 / cqm=0 / deadzone=21,11 / fast_pskip=1 / chroma_qp_offset=-2 / threads=9 / lookahead_threads=1 / sliced_threads=0 / nr=0 / decimate=1 / interlaced=0 / bluray_compat=0 / constrained_intra=0 / bframes=0 / weightp=2 / keyint=96 / keyint_min=48 / scenecut=40 / intra_refresh=0 / rc_lookahead=48 / rc=2pass / mbtree=1 / bitrate=4000 / ratetol=1.0 / qcomp=0.60 / qpmin=0 / qpmax=69 / qpstep=4 / cplxblur=20.0 / qblur=0.5 / vbv_maxrate=6000 / vbv_bufsize=9000 / nal_hrd=none / filler=0 / ip_ratio=1.40 / aq=1:0.60
Language : Japanese
Default : Yes
Forced : No
Color range : Limited
Color primaries : BT.709
Transfer characteristics : BT.709
Matrix coefficients : BT.709

Audio
ID : 2
Format : AAC LC
Format/Info : Advanced Audio Codec Low Complexity
Codec ID : A_AAC-2
Duration : 23 min 40 s
Bit rate : 128 kb/s
Channel(s) : 2 channels
Channel layout : L R
Sampling rate : 44.1 kHz
Frame rate : 43.066 FPS (1024 SPF)
Compression mode : Lossy
Stream size : 21.7 MiB (3%)
Language : Japanese
Default : Yes
Forced : No

Text #1
ID : 3
Format : ASS
Codec ID : S_TEXT/ASS
Codec ID/Info : Advanced Sub Station Alpha
Duration : 23 min 18 s
Bit rate : 137 b/s
Frame rate : 0.231 FPS
Count of elements : 323
Compression mode : Lossless
Stream size : 23.5 KiB (0%)
Title : English
Language : English
Default : Yes
Forced : No

Text #2
ID : 4
Format : ASS
Codec ID : S_TEXT/ASS
Codec ID/Info : Advanced Sub Station Alpha
Duration : 23 min 24 s
Bit rate : 153 b/s
Frame rate : 0.231 FPS
Count of elements : 324
Compression mode : Lossless
Stream size : 26.3 KiB (0%)
Title : Portuguese(Brazil)
Language : Portuguese
Default : No
Forced : No

Text #3
ID : 5
Format : ASS
Codec ID : S_TEXT/ASS
Codec ID/Info : Advanced Sub Station Alpha
Duration : 23 min 23 s
Bit rate : 137 b/s
Frame rate : 0.229 FPS
Count of elements : 321
Compression mode : Lossless
Stream size : 23.6 KiB (0%)
Title : Spanish(Latin_America)
Language : Spanish
Default : No
Forced : No

Text #4
ID : 6
Format : ASS
Codec ID : S_TEXT/ASS
Codec ID/Info : Advanced Sub Station Alpha
Duration : 23 min 23 s
Bit rate : 137 b/s
Frame rate : 0.229 FPS
Count of elements : 321
Compression mode : Lossless
Stream size : 23.5 KiB (0%)
Title : Spanish
Language : Spanish
Default : No
Forced : No

Text #5
ID : 7
Format : ASS
Codec ID : S_TEXT/ASS
Codec ID/Info : Advanced Sub Station Alpha
Duration : 23 min 18 s
Bit rate : 161 b/s
Frame rate : 0.231 FPS
Count of elements : 323
Compression mode : Lossless
Stream size : 27.6 KiB (0%)
Title : Arabic
Language : Arabic
Default : No
Forced : No

Text #6
ID : 8
Format : ASS
Codec ID : S_TEXT/ASS
Codec ID/Info : Advanced Sub Station Alpha
Duration : 23 min 18 s
Bit rate : 143 b/s
Frame rate : 0.224 FPS
Count of elements : 314
Compression mode : Lossless
Stream size : 24.5 KiB (0%)
Title : French
Language : French
Default : No
Forced : No

Text #7
ID : 9
Format : ASS
Codec ID : S_TEXT/ASS
Codec ID/Info : Advanced Sub Station Alpha
Duration : 23 min 20 s
Bit rate : 149 b/s
Frame rate : 0.216 FPS
Count of elements : 302
Compression mode : Lossless
Stream size : 25.6 KiB (0%)
Title : German
Language : German
Default : No
Forced : No

Text #8
ID : 10
Format : ASS
Codec ID : S_TEXT/ASS
Codec ID/Info : Advanced Sub Station Alpha
Duration : 23 min 20 s
Bit rate : 162 b/s
Frame rate : 0.267 FPS
Count of elements : 374
Compression mode : Lossless
Stream size : 27.8 KiB (0%)
Title : Italian
Language : Italian
Default : No
Forced : No

Text #9
ID : 11
Format : ASS
Codec ID : S_TEXT/ASS
Codec ID/Info : Advanced Sub Station Alpha
Duration : 23 min 18 s
Bit rate : 176 b/s
Frame rate : 0.229 FPS
Count of elements : 321
Compression mode : Lossless
Stream size : 30.2 KiB (0%)
Title : Russian
Language : Russian
Default : No
Forced : No





Sasaki to P-chan - 10


Sasaki to P-chan - 10


Sasaki to P-chan - 10


Sasaki to P-chan - 10