Tags
Language
Tags
July 2024
Su Mo Tu We Th Fr Sa
30 1 2 3 4 5 6
7 8 9 10 11 12 13
14 15 16 17 18 19 20
21 22 23 24 25 26 27
28 29 30 31 1 2 3

Simoun (2006) - S01E03

Posted By: Otaku
Simoun (2006) - S01E03

Simoun (2006) - S01E03
MKV | 1024x576 | 日本語 | V_AV1 @ 938 kbps | Opus @ 130.159 kbps | 24 min 20 s | 188 MiB
Subtitles: English



[Kirika] Simoun (2006) - S01E03 [DVD 576p AV1] [85ED7A65].mkv (187.6 MB)



General
Unique ID : 200698110588299242455103489198125252843 (0x96FD0CD31E08A8282A6F4716FD5480EB)
Complete name : ./[Kirika] Simoun (2006) - S01E03 [DVD 576p AV1] [85ED7A65].mkv
Format : Matroska
Format version : Version 4
File size : 188 MiB
Duration : 24 min 20 s
Overall bit rate : 1 078 kb/s
Encoded date : UTC 2024-03-29 09:30:10
Writing application : mkvmerge v83.0 ('Circle Of Friends') 64-bit
Writing library : libebml v1.4.5 + libmatroska v1.7.1
Attachments : ArnoPro-Bold.otf / ArnoPro-Regular.otf / Fansub.ttf / Fansub-Italic.ttf / GillSansStd.otf / GillSansStd-Italic.otf
Encoding_settings : av1an -w 4 –sc-downscale-height 288 -x 300 –min-scene-len 12 –ignore-frame-mismatch -e svt-av1 -v "–preset 6 –crf 14 –aq-mode 0 –keyint 0 –irefresh-type 2 –enable-tf 0 –tune 0 –scm 0 –film-grain 10 –color-primaries 5 –transfer-characteristics 5 –matrix-coefficients 5 –enable-alt-curve 1" -m lsmash -c mkvmerge

Video
ID : 1
Format : AV1
Format/Info : AOMedia Video 1
Format profile : Main@L3.0
Codec ID : V_AV1
Duration : 24 min 20 s
Bit rate : 939 kb/s
Width : 1 024 pixels
Height : 576 pixels
Display aspect ratio : 16:9
Frame rate mode : Variable
Frame rate : 24.351 FPS
Color space : YUV
Chroma subsampling : 4:2:0
Bit depth : 10 bits
Bits/(Pixel*Frame) : 0.065
Stream size : 163 MiB (87%)
Default : Yes
Forced : No
Color range : Limited
Color primaries : BT.601 PAL
Transfer characteristics : BT.470 System B/G
Matrix coefficients : BT.470 System B/G

Audio
ID : 2
Format : Opus
Codec ID : A_OPUS
Duration : 24 min 20 s
Bit rate : 130 kb/s
Channel(s) : 2 channels
Channel layout : L R
Sampling rate : 48.0 kHz
Frame rate : 50.000 FPS (960 SPF)
Compression mode : Lossy
Stream size : 22.7 MiB (12%)
Writing library : opusenc from opus-tools 0.2-3-gf5f571b
Language : Japanese
Default : Yes
Forced : No
ENCODER_OPTIONS : –bitrate 128 –vbr

Text #1
ID : 3
Format : ASS
Codec ID : S_TEXT/ASS
Codec ID/Info : Advanced Sub Station Alpha
Duration : 24 min 19 s
Bit rate : 81 b/s
Frame rate : 0.162 FPS
Count of elements : 237
Compression mode : Lossless
Stream size : 14.5 KiB (0%)
Title : Simoun-Fans
Language : English
Default : Yes
Forced : No

Text #2
ID : 4
Format : ASS
Codec ID : S_TEXT/ASS
Codec ID/Info : Advanced Sub Station Alpha
Duration : 24 min 19 s
Bit rate : 77 b/s
Frame rate : 0.163 FPS
Count of elements : 238
Compression mode : Lossless
Stream size : 13.9 KiB (0%)
Title : R1
Language : English
Default : No
Forced : No

Menu
00:00:00.000 : en:OP
00:01:30.023 : en:Part A
00:12:08.994 : en:Part B
00:22:34.953 : en:ED
00:24:04.976 : en:Preview





Simoun (2006) - S01E03


Simoun (2006) - S01E03


Simoun (2006) - S01E03


Simoun (2006) - S01E03