Tags
Language
Tags
July 2024
Su Mo Tu We Th Fr Sa
30 1 2 3 4 5 6
7 8 9 10 11 12 13
14 15 16 17 18 19 20
21 22 23 24 25 26 27
28 29 30 31 1 2 3

Spice and Wolf MERCHANT MEETS THE WISE WOLF S01E06 Merchant and Unreasonable God

Posted By: Otaku
Spice and Wolf MERCHANT MEETS THE WISE WOLF S01E06 Merchant and Unreasonable God

Spice and Wolf MERCHANT MEETS THE WISE WOLF S01E06 Merchant and Unreasonable God
WEB-DL | MKV | 1920x1080 | 日本語 / English | H264 @ 8000 kbps | AAC @ 128.0 kbps | 23 min 53 s | 1.38 GiB
Subtitles: العربية, Português, Français, English, Italiano, Deutsch, Русский, Español



Spice.and.Wolf.MERCHANT.MEETS.THE.WISE.WOLF.S01E06.Merchant.and.Unreasonable.God.1080p.CR.WEB-DL.AAC2.0.H.264.DUAL-VARYG.mkv (1.4 GB)



General
Unique ID : 6090218316412703953694289270294759600 (0x494EEF2252FEDEB9581608E27ECC8B0)
Complete name : ./Spice.and.Wolf.MERCHANT.MEETS.THE.WISE.WOLF.S01E06.Merchant.and.Unreasonable.God.1080p.CR.WEB-DL.AAC2.0.H.264.DUAL-VARYG.mkv
Format : Matroska
Format version : Version 4
File size : 1.38 GiB
Duration : 23 min 53 s
Overall bit rate : 8 267 kb/s
Writing application : mkvmerge v83.0 ('Circle Of Friends') 64-bit
Writing library : libebml v1.4.5 + libmatroska v1.7.1
Attachments : AdobeArabic-Bold.otf / ANDALEMO.TTF / arial.ttf / arialbd.ttf / COMIC.TTF / cour.ttf / georgia.ttf / georgiab.ttf / tahoma.ttf / times.ttf / trebuc.ttf / verdana.ttf

Video
ID : 1
Format : AVC
Format/Info : Advanced Video Codec
Format profile : High@L4
Format settings : CABAC / 4 Ref Frames
Format settings, CABAC : Yes
Format settings, Reference frames : 4 frames
Codec ID : V_MPEG4/ISO/AVC
Duration : 23 min 50 s
Bit rate : 8 000 kb/s
Width : 1 920 pixels
Height : 1 080 pixels
Display aspect ratio : 16:9
Frame rate mode : Constant
Frame rate : 23.976 (24000/1001) FPS
Color space : YUV
Chroma subsampling : 4:2:0
Bit depth : 8 bits
Scan type : Progressive
Bits/(Pixel*Frame) : 0.161
Stream size : 1.33 GiB (96%)
Writing library : x264 core 164
Encoding settings : cabac=1 / ref=4 / deblock=1:1:1 / analyse=0x3:0x113 / me=hex / subme=8 / psy=1 / psy_rd=0.40:0.00 / mixed_ref=1 / me_range=16 / chroma_me=1 / trellis=2 / 8x8dct=1 / cqm=0 / deadzone=21,11 / fast_pskip=1 / chroma_qp_offset=-2 / threads=12 / lookahead_threads=2 / sliced_threads=0 / nr=0 / decimate=1 / interlaced=0 / bluray_compat=0 / constrained_intra=0 / bframes=0 / weightp=2 / keyint=96 / keyint_min=48 / scenecut=40 / intra_refresh=0 / rc_lookahead=48 / rc=2pass / mbtree=1 / bitrate=8000 / ratetol=1.0 / qcomp=0.60 / qpmin=0 / qpmax=69 / qpstep=4 / cplxblur=20.0 / qblur=0.5 / vbv_maxrate=12000 / vbv_bufsize=18000 / nal_hrd=none / filler=0 / ip_ratio=1.40 / aq=1:0.60
Default : Yes
Forced : No

Audio #1
ID : 2
Format : AAC LC
Format/Info : Advanced Audio Codec Low Complexity
Codec ID : A_AAC-2
Duration : 23 min 50 s
Bit rate : 128 kb/s
Channel(s) : 2 channels
Channel layout : L R
Sampling rate : 44.1 kHz
Frame rate : 43.066 FPS (1024 SPF)
Compression mode : Lossy
Stream size : 21.8 MiB (2%)
Language : Japanese
Default : Yes
Forced : No

Audio #2
ID : 3
Format : AAC LC
Format/Info : Advanced Audio Codec Low Complexity
Codec ID : A_AAC-2
Duration : 23 min 50 s
Bit rate : 128 kb/s
Channel(s) : 2 channels
Channel layout : L R
Sampling rate : 44.1 kHz
Frame rate : 43.066 FPS (1024 SPF)
Compression mode : Lossy
Stream size : 21.8 MiB (2%)
Language : English
Default : No
Forced : No

Text #1
ID : 4
Format : ASS
Codec ID : S_TEXT/ASS
Codec ID/Info : Advanced Sub Station Alpha
Duration : 21 min 51 s
Bit rate : 2 b/s
Frame rate : 0.005 FPS
Count of elements : 6
Compression mode : Lossless
Stream size : 391 Bytes (0%)
Title : Forced
Language : English
Default : No
Forced : Yes

Text #2
ID : 5
Format : ASS
Codec ID : S_TEXT/ASS
Codec ID/Info : Advanced Sub Station Alpha
Duration : 23 min 35 s
Bit rate : 102 b/s
Frame rate : 0.197 FPS
Count of elements : 279
Compression mode : Lossless
Stream size : 17.7 KiB (0%)
Language : English
Default : Yes
Forced : No

Text #3
ID : 6
Format : UTF-8
Codec ID : S_TEXT/UTF8
Codec ID/Info : UTF-8 Plain Text
Duration : 23 min 35 s
Bit rate : 79 b/s
Frame rate : 0.309 FPS
Count of elements : 437
Stream size : 13.8 KiB (0%)
Title : SDH
Language : English
Default : No
Forced : No

Text #4
ID : 7
Format : ASS
Codec ID : S_TEXT/ASS
Codec ID/Info : Advanced Sub Station Alpha
Duration : 23 min 35 s
Bit rate : 126 b/s
Frame rate : 0.197 FPS
Count of elements : 279
Compression mode : Lossless
Stream size : 21.8 KiB (0%)
Title : Saudi Arabia
Language : Arabic
Default : No
Forced : No

Text #5
ID : 8
Format : ASS
Codec ID : S_TEXT/ASS
Codec ID/Info : Advanced Sub Station Alpha
Duration : 23 min 35 s
Bit rate : 198 b/s
Frame rate : 0.201 FPS
Count of elements : 285
Compression mode : Lossless
Stream size : 34.3 KiB (0%)
Language : German
Default : No
Forced : No

Text #6
ID : 9
Format : ASS
Codec ID : S_TEXT/ASS
Codec ID/Info : Advanced Sub Station Alpha
Duration : 23 min 35 s
Bit rate : 98 b/s
Frame rate : 0.194 FPS
Count of elements : 275
Compression mode : Lossless
Stream size : 17.0 KiB (0%)
Title : Latin American
Language : Spanish
Default : No
Forced : No

Text #7
ID : 10
Format : ASS
Codec ID : S_TEXT/ASS
Codec ID/Info : Advanced Sub Station Alpha
Duration : 23 min 35 s
Bit rate : 98 b/s
Frame rate : 0.194 FPS
Count of elements : 275
Compression mode : Lossless
Stream size : 17.1 KiB (0%)
Title : European
Language : Spanish
Default : No
Forced : No

Text #8
ID : 11
Format : ASS
Codec ID : S_TEXT/ASS
Codec ID/Info : Advanced Sub Station Alpha
Duration : 23 min 35 s
Bit rate : 104 b/s
Frame rate : 0.203 FPS
Count of elements : 288
Compression mode : Lossless
Stream size : 18.1 KiB (0%)
Language : French
Default : No
Forced : No

Text #9
ID : 12
Format : ASS
Codec ID : S_TEXT/ASS
Codec ID/Info : Advanced Sub Station Alpha
Duration : 23 min 38 s
Bit rate : 114 b/s
Frame rate : 0.233 FPS
Count of elements : 330
Compression mode : Lossless
Stream size : 19.8 KiB (0%)
Language : Italian
Default : No
Forced : No

Text #10
ID : 13
Format : ASS
Codec ID : S_TEXT/ASS
Codec ID/Info : Advanced Sub Station Alpha
Duration : 23 min 35 s
Bit rate : 102 b/s
Frame rate : 0.198 FPS
Count of elements : 280
Compression mode : Lossless
Stream size : 17.8 KiB (0%)
Title : Brazilian
Language : Portuguese
Default : No
Forced : No

Text #11
ID : 14
Format : ASS
Codec ID : S_TEXT/ASS
Codec ID/Info : Advanced Sub Station Alpha
Duration : 23 min 35 s
Bit rate : 185 b/s
Frame rate : 0.213 FPS
Count of elements : 301
Compression mode : Lossless
Stream size : 32.1 KiB (0%)
Language : Russian
Default : No
Forced : No

Menu
00:00:00.000 : en:Scene 1
00:01:57.000 : en:Intro
00:03:27.000 : en:Scene 3
00:22:15.000 : en:Credits
00:23:45.000 : en:Preview





Spice and Wolf MERCHANT MEETS THE WISE WOLF S01E06 Merchant and Unreasonable God


Spice and Wolf MERCHANT MEETS THE WISE WOLF S01E06 Merchant and Unreasonable God


Spice and Wolf MERCHANT MEETS THE WISE WOLF S01E06 Merchant and Unreasonable God


Spice and Wolf MERCHANT MEETS THE WISE WOLF S01E06 Merchant and Unreasonable God