Tags
Language
Tags
July 2024
Su Mo Tu We Th Fr Sa
30 1 2 3 4 5 6
7 8 9 10 11 12 13
14 15 16 17 18 19 20
21 22 23 24 25 26 27
28 29 30 31 1 2 3

Strike the Blood III OVA - 05 BD 1920x1080 x 264 Flac

Posted By: Otaku
Strike the Blood III OVA - 05 BD 1920x1080 x 264 Flac

Strike the Blood III OVA - 05 BD 1920x1080 x 264 Flac
MKV | 1920x1080 | 日本語 | H264 @ 3854 kbps | FLAC @ 1453.479 kbps | 28 min 14 s | 1.05 GiB



[Moozzi2] Strike the Blood III OVA - 05 (BD 1920x1080 x 264 Flac).mkv (1.0 GB)



General
Unique ID : 280562759840840925340584706993046893290 (0xD3126C0B308ACA3A0ADB41028B2F32EA)
Complete name : ./[Moozzi2] Strike the Blood III OVA - 05 (BD 1920x1080 x 264 Flac).mkv
Format : Matroska
Format version : Version 4
File size : 1.05 GiB
Duration : 28 min 14 s
Overall bit rate mode : Variable
Overall bit rate : 5 310 kb/s
Encoded date : UTC 2019-09-27 11:53:13
Writing application : mkvmerge v28.2.0 ('The Awakening') 64-bit
Writing library : libebml v1.3.6 + libmatroska v1.4.9

Video
ID : 1
Format : AVC
Format/Info : Advanced Video Codec
Format profile : High@L5
Format settings : CABAC / 5 Ref Frames
Format settings, CABAC : Yes
Format settings, Reference frames : 5 frames
Codec ID : V_MPEG4/ISO/AVC
Duration : 28 min 14 s
Bit rate : 3 854 kb/s
Width : 1 920 pixels
Height : 1 080 pixels
Display aspect ratio : 16:9
Frame rate mode : Constant
Frame rate : 23.976 (24000/1001) FPS
Color space : YUV
Chroma subsampling : 4:2:0
Bit depth : 8 bits
Scan type : Progressive
Bits/(Pixel*Frame) : 0.078
Stream size : 779 MiB (73%)
Writing library : x264 core 157 r2935 545de2f
Encoding settings : cabac=1 / ref=5 / deblock=1:1:1 / analyse=0x3:0x113 / me=umh / subme=9 / psy=1 / psy_rd=1.00:0.00 / mixed_ref=1 / me_range=32 / chroma_me=1 / trellis=1 / 8x8dct=1 / cqm=0 / deadzone=21,11 / fast_pskip=0 / chroma_qp_offset=-2 / threads=34 / lookahead_threads=2 / sliced_threads=0 / nr=0 / decimate=1 / interlaced=0 / bluray_compat=0 / stitchable=1 / constrained_intra=0 / bframes=3 / b_pyramid=2 / b_adapt=2 / b_bias=0 / direct=1 / weightb=1 / open_gop=0 / weightp=1 / keyint=240 / keyint_min=23 / scenecut=40 / intra_refresh=0 / rc_lookahead=40 / rc=crf / mbtree=1 / crf=16.0 / qcomp=0.65 / qpmin=0 / qpmax=69 / qpstep=4 / ip_ratio=1.40 / aq=1:1.00
Language : Japanese
Default : Yes
Forced : No

Audio
ID : 2
Format : FLAC
Format/Info : Free Lossless Audio Codec
Codec ID : A_FLAC
Duration : 28 min 14 s
Bit rate mode : Variable
Bit rate : 1 453 kb/s
Channel(s) : 2 channels
Channel layout : L R
Sampling rate : 48.0 kHz
Frame rate : 11.719 FPS (4096 SPF)
Bit depth : 24 bits
Compression mode : Lossless
Stream size : 294 MiB (27%)
Writing library : libFLAC 1.3.2 (UTC 2017-01-01)
Language : Japanese
Default : Yes
Forced : No





Strike the Blood III OVA - 05 BD 1920x1080 x 264 Flac


Strike the Blood III OVA - 05 BD 1920x1080 x 264 Flac


Strike the Blood III OVA - 05 BD 1920x1080 x 264 Flac


Strike the Blood III OVA - 05 BD 1920x1080 x 264 Flac