Tags
Language
Tags
June 2024
Su Mo Tu We Th Fr Sa
26 27 28 29 30 31 1
2 3 4 5 6 7 8
9 10 11 12 13 14 15
16 17 18 19 20 21 22
23 24 25 26 27 28 29
30 1 2 3 4 5 6

TP BON S01E10 Gunfight Near the O K Corral 540p NF

Posted By: Otaku
TP BON S01E10 Gunfight Near the O K  Corral 540p NF

TP BON S01E10 Gunfight Near the O K Corral 540p NF
WEB-DL | MKV | 960x540 | 日本語 / English | H264 @ 329 kbps | E-AC-3 @ 640.0 kbps | 27 min 46 s | 326 MiB
Subtitles: English



T・P.BON.S01E10.Gunfight.Near.the.O.K..Corral.540p.NF.WEB-DL.DUAL.DDP5.1.H.264.MSubs-ToonsHub.mkv (326.4 MB)



General
Unique ID : 20206390708954378030001945145052175644 (0xF339BFAA796B087AD136076CFD71D1C)
Complete name : ./T・P.BON.S01E10.Gunfight.Near.the.O.K..Corral.540p.NF.WEB-DL.DUAL.DDP5.1.H.264.MSubs-ToonsHub.mkv
Format : Matroska
Format version : Version 4
File size : 326 MiB
Duration : 27 min 46 s
Overall bit rate mode : Variable
Overall bit rate : 1 643 kb/s
Writing application : Lavf58.29.100
Writing library : Lavf58.29.100
ErrorDetectionType : Per level 1
Attachments : Futura.ttf

Video
ID : 1
Format : AVC
Format/Info : Advanced Video Codec
Format profile : High@L3.1
Format settings : CABAC / 4 Ref Frames
Format settings, CABAC : Yes
Format settings, Reference frames : 4 frames
Codec ID : V_MPEG4/ISO/AVC
Duration : 27 min 46 s
Bit rate mode : Variable
Bit rate : 330 kb/s
Maximum bit rate : 14.0 Mb/s
Width : 960 pixels
Height : 540 pixels
Display aspect ratio : 16:9
Frame rate mode : Constant
Frame rate : 23.976 (24000/1001) FPS
Color space : YUV
Chroma subsampling : 4:2:0
Bit depth : 8 bits
Scan type : Progressive
Bits/(Pixel*Frame) : 0.027
Stream size : 65.5 MiB (20%)
Title : by ToonsHub
Writing library : x264 core 148 r2727 7d026e8
Encoding settings : cabac=1 / ref=4 / deblock=1:0:0 / analyse=0x3:0x111 / me=umh / subme=10 / psy=1 / psy_rd=1.00:0.00 / mixed_ref=1 / me_range=120 / chroma_me=1 / trellis=2 / 8x8dct=1 / cqm=0 / deadzone=21,11 / fast_pskip=1 / chroma_qp_offset=-2 / threads=3 / lookahead_threads=1 / sliced_threads=0 / nr=0 / decimate=1 / interlaced=0 / bluray_compat=0 / stitchable=1 / constrained_intra=0 / bframes=16 / b_pyramid=2 / b_adapt=2 / b_bias=0 / direct=3 / weightb=1 / open_gop=0 / weightp=2 / keyint=240 / keyint_min=121 / scenecut=0 / intra_refresh=0 / rc_lookahead=240 / rc=crf / mbtree=1 / crf=26.0 / qcomp=0.50 / qpmin=6 / qpmax=51 / qpstep=4 / vbv_maxrate=14000 / vbv_bufsize=14000 / crf_max=0.0 / nal_hrd=vbr / filler=0 / ip_ratio=1.40 / aq=1:0.80
Default : Yes
Forced : No

Audio #1
ID : 2
Format : E-AC-3
Format/Info : Enhanced AC-3
Commercial name : Dolby Digital Plus
Codec ID : A_EAC3
Duration : 27 min 46 s
Bit rate mode : Constant
Bit rate : 640 kb/s
Channel(s) : 6 channels
Channel layout : L R C LFE Ls Rs
Sampling rate : 48.0 kHz
Frame rate : 31.250 FPS (1536 SPF)
Bit depth : 32 bits
Compression mode : Lossy
Stream size : 127 MiB (39%)
Title : [ToonsHub] English
Language : English
Service kind : Complete Main
Default : Yes
Forced : No

Audio #2
ID : 3
Format : E-AC-3
Format/Info : Enhanced AC-3
Commercial name : Dolby Digital Plus
Codec ID : A_EAC3
Duration : 27 min 46 s
Bit rate mode : Constant
Bit rate : 640 kb/s
Channel(s) : 6 channels
Channel layout : L R C LFE Ls Rs
Sampling rate : 48.0 kHz
Frame rate : 31.250 FPS (1536 SPF)
Bit depth : 32 bits
Compression mode : Lossy
Stream size : 127 MiB (39%)
Title : [ToonsHub] Japanese
Language : Japanese
Service kind : Complete Main
Default : Yes
Forced : No

Text #1
ID : 4
Format : ASS
Codec ID : S_TEXT/ASS
Codec ID/Info : Advanced Sub Station Alpha
Duration : 24 min 46 s
Compression mode : Lossless
Title : [ToonsHub] English
Language : English
Default : No
Forced : No

Text #2
ID : 5
Format : ASS
Codec ID : S_TEXT/ASS
Codec ID/Info : Advanced Sub Station Alpha
Duration : 24 min 46 s
Compression mode : Lossless
Title : [ToonsHub] English
Language : English
Default : No
Forced : No

Text #3
ID : 6
Format : ASS
Codec ID : S_TEXT/ASS
Codec ID/Info : Advanced Sub Station Alpha
Duration : 26 min 56 s
Compression mode : Lossless
Title : [ToonsHub] English (SDH)
Language : English
Default : No
Forced : No





TP BON S01E10 Gunfight Near the O K  Corral 540p NF


TP BON S01E10 Gunfight Near the O K  Corral 540p NF


TP BON S01E10 Gunfight Near the O K  Corral 540p NF


TP BON S01E10 Gunfight Near the O K  Corral 540p NF