Tags
Language
Tags
June 2024
Su Mo Tu We Th Fr Sa
26 27 28 29 30 31 1
2 3 4 5 6 7 8
9 10 11 12 13 14 15
16 17 18 19 20 21 22
23 24 25 26 27 28 29
30 1 2 3 4 5 6

Tengen Toppa Gurren Lagann - 24 - We Will Never Forget, This Minute and Second

Posted By: Otaku
Tengen Toppa Gurren Lagann - 24 - We Will Never Forget, This Minute and Second

Tengen Toppa Gurren Lagann - 24 - We Will Never Forget, This Minute and Second
MKV | 1920x1080 | English / 日本語 | V_AV1 @ 3276 kbps | Opus @ 87.275 kbps | 24 min 23 s | 638 MiB
Subtitles: English



[2ndfire] Tengen Toppa Gurren Lagann - 24 - We Will Never Forget, This Minute and Second [AAE8ABB6].mkv (637.8 MB)



General
Unique ID : 257987638481822179132253295650351956057 (0xC2169CA07526B990BFFB2AE6A5D14059)
Complete name : ./[2ndfire] Tengen Toppa Gurren Lagann - 24 - We Will Never Forget, This Minute and Second [AAE8ABB6].mkv
Format : Matroska
Format version : Version 4
File size : 638 MiB
Duration : 24 min 23 s
Overall bit rate : 3 655 kb/s
Encoded date : UTC 2024-02-23 04:39:19
Writing application : mkvmerge v82.0 ('I'm The President') 64-bit
Writing library : libebml v1.4.5 + libmatroska v1.7.1
Attachments : 123MARKER.TTF / A-OTF-RyuminStd-Heavy-KO-AnoHana.ttf / A-OTF-ShinGoPr6N-DB-Toaru.ttf / AdobeFanHeitiStd-Bold.otf / AdobeGothicStd-Bold.ttf / AdobeHeitiStd-Regular.otf / Amaranth-Bold.ttf / Blockhead.otf / BRUSHED(1).TTF / Clannad.ttf / Dimbo Regular.ttf / DISTInking-Bold.otf / fansubBlock.ttf / GANDHI~1.OTF / GANDHI~2.OTF / GearedSlab.ttf / HANDYHANDY.ttf / IWAMINPRO-BD-EN.otf / LeviReBrushed.ttf / LuxiSubSans-Bold.ttf / NEC_.TTF / Prototype.ttf / QlassikBold_TB.ttf / To forgive.ttf / TwinMarker.ttf / twinpine.ttf

Video
ID : 1
Format : AV1
Format/Info : AOMedia Video 1
Format profile : Main@L4.0
Codec ID : V_AV1
Duration : 24 min 21 s
Bit rate : 3 277 kb/s
Width : 1 920 pixels
Height : 1 080 pixels
Display aspect ratio : 16:9
Frame rate mode : Constant
Frame rate : 23.976 (24000/1001) FPS
Color space : YUV
Chroma subsampling : 4:2:0
Bit depth : 10 bits
Bits/(Pixel*Frame) : 0.066
Stream size : 571 MiB (90%)
Language : English
Default : No
Forced : No
Color range : Limited

Audio #1
ID : 2
Format : Opus
Codec ID : A_OPUS
Duration : 24 min 21 s
Bit rate : 87.3 kb/s
Channel(s) : 2 channels
Channel layout : L R
Sampling rate : 48.0 kHz
Frame rate : 50.000 FPS (960 SPF)
Bit depth : 32 bits
Compression mode : Lossy
Stream size : 15.2 MiB (2%)
Language : Japanese
Default : Yes
Forced : No

Audio #2
ID : 3
Format : Opus
Codec ID : A_OPUS
Duration : 24 min 23 s
Bit rate : 116 kb/s
Channel(s) : 6 channels
Channel layout : L R C Lb Rb LFE
Sampling rate : 48.0 kHz
Frame rate : 50.000 FPS (960 SPF)
Bit depth : 16 bits
Compression mode : Lossy
Delay relative to video : 42 ms
Stream size : 20.3 MiB (3%)
Title : Bang Zoom Dub
Language : English
Default : No
Forced : No

Text #1
ID : 4
Format : ASS
Codec ID : S_TEXT/ASS
Codec ID/Info : Advanced Sub Station Alpha
Duration : 24 min 9 s
Bit rate : 9 489 b/s
Frame rate : 3.648 FPS
Count of elements : 5289
Compression mode : Lossless
Stream size : 1.64 MiB (0%)
Title : Full
Language : English
Default : Yes
Forced : No

Text #2
ID : 5
Format : ASS
Codec ID : S_TEXT/ASS
Codec ID/Info : Advanced Sub Station Alpha
Duration : 24 min 9 s
Bit rate : 9 385 b/s
Frame rate : 3.429 FPS
Count of elements : 4972
Compression mode : Lossless
Stream size : 1.62 MiB (0%)
Title : Signs/Songs
Language : English
Default : No
Forced : Yes

Menu
00:00:00.000 : :Chapter 06
00:01:30.047 : :Chapter 07
00:11:29.063 : :Chapter 08
00:22:35.061 : :Chapter 09
00:24:05.568 : :Chapter 10





Tengen Toppa Gurren Lagann - 24 - We Will Never Forget, This Minute and Second


Tengen Toppa Gurren Lagann - 24 - We Will Never Forget, This Minute and Second


Tengen Toppa Gurren Lagann - 24 - We Will Never Forget, This Minute and Second


Tengen Toppa Gurren Lagann - 24 - We Will Never Forget, This Minute and Second