Tags
Language
Tags
June 2024
Su Mo Tu We Th Fr Sa
26 27 28 29 30 31 1
2 3 4 5 6 7 8
9 10 11 12 13 14 15
16 17 18 19 20 21 22
23 24 25 26 27 28 29
30 1 2 3 4 5 6

Tengen Toppa Gurren Lagann - 26 - Let's Go, Comrades!

Posted By: Otaku
Tengen Toppa Gurren Lagann - 26 - Let's Go, Comrades!

Tengen Toppa Gurren Lagann - 26 - Let's Go, Comrades!
MKV | 1920x1080 | 日本語 / English | V_AV1 @ 2695 kbps | Opus @ 89.378 kbps | 24 min 23 s | 537 MiB
Subtitles: English



[2ndfire] Tengen Toppa Gurren Lagann - 26 - Let's Go, Comrades! [145E4A7F].mkv (536.8 MB)



General
Unique ID : 72874111401161443576832352947997573440 (0x36D30B17CB264D00E9E85C48EA050140)
Complete name : ./[2ndfire] Tengen Toppa Gurren Lagann - 26 - Let's Go, Comrades! [145E4A7F].mkv
Format : Matroska
Format version : Version 4
File size : 537 MiB
Duration : 24 min 23 s
Overall bit rate : 3 076 kb/s
Encoded date : UTC 2024-02-23 04:40:10
Writing application : mkvmerge v82.0 ('I'm The President') 64-bit
Writing library : libebml v1.4.5 + libmatroska v1.7.1
Attachments : 123MARKER.TTF / A-OTF-RyuminStd-Heavy-KO-AnoHana.ttf / A-OTF-ShinGoPr6N-DB-Toaru.ttf / AdobeFanHeitiStd-Bold.otf / AdobeGothicStd-Bold.ttf / AdobeHeitiStd-Regular.otf / Amaranth-Bold.ttf / Blockhead.otf / BRUSHED(1).TTF / Clannad.ttf / Dimbo Regular.ttf / DISTInking-Bold.otf / fansubBlock.ttf / GANDHI~1.OTF / GANDHI~2.OTF / GearedSlab.ttf / HANDYHANDY.ttf / IWAMINPRO-BD-EN.otf / LeviReBrushed.ttf / LuxiSubSans-Bold.ttf / NEC_.TTF / Prototype.ttf / QlassikBold_TB.ttf / To forgive.ttf / TwinMarker.ttf / twinpine.ttf

Video
ID : 1
Format : AV1
Format/Info : AOMedia Video 1
Format profile : Main@L4.0
Codec ID : V_AV1
Duration : 24 min 21 s
Bit rate : 2 695 kb/s
Width : 1 920 pixels
Height : 1 080 pixels
Display aspect ratio : 16:9
Frame rate mode : Constant
Frame rate : 23.976 (24000/1001) FPS
Color space : YUV
Chroma subsampling : 4:2:0
Bit depth : 10 bits
Bits/(Pixel*Frame) : 0.054
Stream size : 470 MiB (87%)
Language : English
Default : No
Forced : No
Color range : Limited

Audio #1
ID : 2
Format : Opus
Codec ID : A_OPUS
Duration : 24 min 21 s
Bit rate : 89.4 kb/s
Channel(s) : 2 channels
Channel layout : L R
Sampling rate : 48.0 kHz
Frame rate : 50.000 FPS (960 SPF)
Bit depth : 32 bits
Compression mode : Lossy
Stream size : 15.6 MiB (3%)
Language : Japanese
Default : Yes
Forced : No

Audio #2
ID : 3
Format : Opus
Codec ID : A_OPUS
Duration : 24 min 23 s
Bit rate : 116 kb/s
Channel(s) : 6 channels
Channel layout : L R C Lb Rb LFE
Sampling rate : 48.0 kHz
Frame rate : 50.000 FPS (960 SPF)
Bit depth : 16 bits
Compression mode : Lossy
Delay relative to video : 42 ms
Stream size : 20.2 MiB (4%)
Title : Bang Zoom Dub
Language : English
Default : No
Forced : No

Text #1
ID : 4
Format : ASS
Codec ID : S_TEXT/ASS
Codec ID/Info : Advanced Sub Station Alpha
Duration : 24 min 9 s
Bit rate : 9 457 b/s
Frame rate : 3.615 FPS
Count of elements : 5241
Compression mode : Lossless
Stream size : 1.63 MiB (0%)
Title : Full
Language : English
Default : Yes
Forced : No

Text #2
ID : 5
Format : ASS
Codec ID : S_TEXT/ASS
Codec ID/Info : Advanced Sub Station Alpha
Duration : 24 min 9 s
Bit rate : 9 359 b/s
Frame rate : 3.423 FPS
Count of elements : 4963
Compression mode : Lossless
Stream size : 1.62 MiB (0%)
Title : Signs/Songs
Language : English
Default : No
Forced : Yes

Menu
00:00:00.000 : :Chapter 15 / :Chapter 16
00:01:30.048 : :Chapter 17
00:09:59.015 : :Chapter 18
00:22:35.020 : :Chapter 19
00:24:05.527 : :Chapter 20





Tengen Toppa Gurren Lagann - 26 - Let's Go, Comrades!


Tengen Toppa Gurren Lagann - 26 - Let's Go, Comrades!


Tengen Toppa Gurren Lagann - 26 - Let's Go, Comrades!


Tengen Toppa Gurren Lagann - 26 - Let's Go, Comrades!