Tags
Language
Tags
July 2024
Su Mo Tu We Th Fr Sa
30 1 2 3 4 5 6
7 8 9 10 11 12 13
14 15 16 17 18 19 20
21 22 23 24 25 26 27
28 29 30 31 1 2 3

The Elusive Samurai S01E01 May 22nd

Posted By: Otaku
The Elusive Samurai S01E01 May 22nd

The Elusive Samurai S01E01 May 22nd
MKV | 1920x1080 | 日本語 | H265 @ 4217 kbps | Opus @ 94.603 kbps | 23 min 41 s | 737 MiB
Subtitles: English, العربية, Deutsch, Português, Español, Français, Italiano, Русский



[Yugen] The Elusive Samurai S01E01 May 22nd [1080p x265].mkv (736.6 MB)



General
Unique ID : 114314071651014114537492939590638849421 (0x560016E0AC848D0A02CFB225F5C54D8D)
Complete name : ./[Yugen] The Elusive Samurai S01E01 May 22nd [1080p x265].mkv
Format : Matroska
Format version : Version 4
File size : 737 MiB
Duration : 23 min 41 s
Overall bit rate : 4 346 kb/s
Movie name : Encoded By t.me/Yugen_Files
Encoded date : UTC 2024-07-10 13:36:28
Writing application : mkvmerge v85.0 ('Shame For You') 64-bit
Writing library : libebml v1.4.5 + libmatroska v1.7.1
Attachments : 6692-fontps.ttf / AdobeArabic-Bold.otf / arial.ttf / arialbd.ttf / comic.ttf / georgiab.ttf / Impacted.ttf / tahoma.ttf / times.ttf / timesbd_0.ttf / trebuc.ttf / verdana.ttf / verdanab.ttf

Video
ID : 1
Format : HEVC
Format/Info : High Efficiency Video Coding
Format profile : Main 10@L4@Main
Codec ID : V_MPEGH/ISO/HEVC
Duration : 23 min 40 s
Bit rate : 4 218 kb/s
Width : 1 920 pixels
Height : 1 080 pixels
Display aspect ratio : 16:9
Frame rate mode : Constant
Frame rate : 23.976 (24000/1001) FPS
Color space : YUV
Chroma subsampling : 4:2:0
Bit depth : 10 bits
Bits/(Pixel*Frame) : 0.085
Stream size : 714 MiB (97%)
Default : Yes
Forced : No
Color range : Limited
Color primaries : BT.709
Transfer characteristics : BT.709
Matrix coefficients : BT.709

Audio
ID : 2
Format : Opus
Codec ID : A_OPUS
Duration : 23 min 40 s
Bit rate : 94.6 kb/s
Channel(s) : 2 channels
Channel layout : L R
Sampling rate : 44.1 kHz
Frame rate : 50.000 FPS (882 SPF)
Compression mode : Lossy
Stream size : 16.0 MiB (2%)
Writing library : Lavf61.3.104
Language : Japanese
Default : No
Forced : No
ENCODER_OPTIONS : –vbr –bitrate 96

Text #1
ID : 3
Format : ASS
Codec ID : S_TEXT/ASS
Codec ID/Info : Advanced Sub Station Alpha
Duration : 23 min 37 s
Bit rate : 101 b/s
Frame rate : 0.219 FPS
Count of elements : 311
Compression mode : Lossless
Stream size : 17.6 KiB (0%)
Language : English
Default : Yes
Forced : No

Text #2
ID : 4
Format : ASS
Codec ID : S_TEXT/ASS
Codec ID/Info : Advanced Sub Station Alpha
Duration : 23 min 37 s
Bit rate : 128 b/s
Frame rate : 0.219 FPS
Count of elements : 311
Compression mode : Lossless
Stream size : 22.2 KiB (0%)
Title : Saudi Arabia
Language : Arabic
Default : No
Forced : No

Text #3
ID : 5
Format : ASS
Codec ID : S_TEXT/ASS
Codec ID/Info : Advanced Sub Station Alpha
Duration : 23 min 39 s
Bit rate : 182 b/s
Frame rate : 0.273 FPS
Count of elements : 387
Compression mode : Lossless
Stream size : 31.7 KiB (0%)
Language : German
Default : No
Forced : No

Text #4
ID : 6
Format : ASS
Codec ID : S_TEXT/ASS
Codec ID/Info : Advanced Sub Station Alpha
Duration : 23 min 38 s
Bit rate : 112 b/s
Frame rate : 0.205 FPS
Count of elements : 291
Compression mode : Lossless
Stream size : 19.4 KiB (0%)
Title : Latin American
Language : Spanish
Default : No
Forced : No

Text #5
ID : 7
Format : ASS
Codec ID : S_TEXT/ASS
Codec ID/Info : Advanced Sub Station Alpha
Duration : 23 min 38 s
Bit rate : 112 b/s
Frame rate : 0.205 FPS
Count of elements : 291
Compression mode : Lossless
Stream size : 19.4 KiB (0%)
Title : European
Language : Spanish
Default : No
Forced : No

Text #6
ID : 8
Format : ASS
Codec ID : S_TEXT/ASS
Codec ID/Info : Advanced Sub Station Alpha
Duration : 23 min 37 s
Bit rate : 120 b/s
Frame rate : 0.230 FPS
Count of elements : 326
Compression mode : Lossless
Stream size : 20.9 KiB (0%)
Language : French
Default : No
Forced : No

Text #7
ID : 9
Format : ASS
Codec ID : S_TEXT/ASS
Codec ID/Info : Advanced Sub Station Alpha
Duration : 23 min 39 s
Bit rate : 154 b/s
Frame rate : 0.269 FPS
Count of elements : 382
Compression mode : Lossless
Stream size : 26.8 KiB (0%)
Language : Italian
Default : No
Forced : No

Text #8
ID : 10
Format : ASS
Codec ID : S_TEXT/ASS
Codec ID/Info : Advanced Sub Station Alpha
Duration : 22 min 2 s
Bit rate : 108 b/s
Frame rate : 0.223 FPS
Count of elements : 295
Compression mode : Lossless
Stream size : 17.5 KiB (0%)
Title : Brazilian
Language : Portuguese
Default : No
Forced : No

Text #9
ID : 11
Format : ASS
Codec ID : S_TEXT/ASS
Codec ID/Info : Advanced Sub Station Alpha
Duration : 22 min 14 s
Bit rate : 196 b/s
Frame rate : 0.265 FPS
Count of elements : 354
Compression mode : Lossless
Stream size : 32.0 KiB (0%)
Language : Russian
Default : No
Forced : No





The Elusive Samurai S01E01 May 22nd


The Elusive Samurai S01E01 May 22nd


The Elusive Samurai S01E01 May 22nd


The Elusive Samurai S01E01 May 22nd