Tags
Language
Tags
April 2024
Su Mo Tu We Th Fr Sa
31 1 2 3 4 5 6
7 8 9 10 11 12 13
14 15 16 17 18 19 20
21 22 23 24 25 26 27
28 29 30 1 2 3 4

The Wrong Way To Use Healing Magic S01E05

Posted By: Otaku
The Wrong Way To Use Healing Magic S01E05

The Wrong Way To Use Healing Magic S01E05
WEB-DL | MKV | 1920x1080 | English / 日本語 | H264 @ 8000 kbps | AAC @ 128.0 kbps | 23 min 40 s | 1.37 GiB
Subtitles: Italiano, Español, Deutsch, Português, Français, English, Русский, العربية



The.Wrong.Way.To.Use.Healing.Magic.S01E05.1080p.WEB-DL.x264.AAC.2.0-ZeroBuild.mkv (1.4 GB)



General
Unique ID : 45932131061753837481938210180268126177 (0x228E34E7CF477D1D0EA91B3F248D6FE1)
Complete name : ./The.Wrong.Way.To.Use.Healing.Magic.S01E05.1080p.WEB-DL.x264.AAC.2.0-ZeroBuild.mkv
Format : Matroska
Format version : Version 4
File size : 1.37 GiB
Duration : 23 min 40 s
Overall bit rate : 8 292 kb/s
Movie name : The Wrong Way To Use Healing Magic - S01E05 - Usato, Back in the Forest!
Attachments : AdobeArabic-Bold.otf / arial.ttf / ariali.ttf / ariblk.ttf / arialbd.ttf / arialbi.ttf / tahoma.ttf / times.ttf / timesbd.ttf / timesbi.ttf / timesi.ttf / trebuc.ttf / trebucbi.ttf / trebucit.ttf / verdana.ttf / verdanab.ttf / verdanai.ttf / verdanaz.ttf / A-OTF Gothic MB101 Pro B Bold.otf / AltonaBold.ttf / CronosPro-SemiboldDispIt.otf / Vesta-Bold.ttf / Warpaint.ttf

Video
ID : 1
Format : AVC
Format/Info : Advanced Video Codec
Format profile : High@L4
Format settings : CABAC / 4 Ref Frames
Format settings, CABAC : Yes
Format settings, Reference frames : 4 frames
Codec ID : V_MPEG4/ISO/AVC
Duration : 23 min 40 s
Bit rate : 8 000 kb/s
Width : 1 920 pixels
Height : 1 080 pixels
Display aspect ratio : 16:9
Frame rate mode : Constant
Frame rate : 23.976 (24000/1001) FPS
Color space : YUV
Chroma subsampling : 4:2:0
Bit depth : 8 bits
Scan type : Progressive
Bits/(Pixel*Frame) : 0.161
Stream size : 1.32 GiB (96%)
Title : WEB-DL x264 @ 8 000 kb/s [CR]
Writing library : x264 core 164
Encoding settings : cabac=1 / ref=4 / deblock=1:1:1 / analyse=0x3:0x113 / me=hex / subme=8 / psy=1 / psy_rd=0.40:0.00 / mixed_ref=1 / me_range=16 / chroma_me=1 / trellis=2 / 8x8dct=1 / cqm=0 / deadzone=21,11 / fast_pskip=1 / chroma_qp_offset=-2 / threads=12 / lookahead_threads=2 / sliced_threads=0 / nr=0 / decimate=1 / interlaced=0 / bluray_compat=0 / constrained_intra=0 / bframes=0 / weightp=2 / keyint=96 / keyint_min=48 / scenecut=40 / intra_refresh=0 / rc_lookahead=48 / rc=2pass / mbtree=1 / bitrate=8000 / ratetol=1.0 / qcomp=0.60 / qpmin=0 / qpmax=69 / qpstep=4 / cplxblur=20.0 / qblur=0.5 / vbv_maxrate=12000 / vbv_bufsize=18000 / nal_hrd=none / filler=0 / ip_ratio=1.40 / aq=1:0.60
Default : Yes
Forced : No
Color range : Limited
Color primaries : BT.709
Transfer characteristics : BT.709
Matrix coefficients : BT.709

Audio #1
ID : 2
Format : AAC LC
Format/Info : Advanced Audio Codec Low Complexity
Codec ID : A_AAC-2
Duration : 23 min 40 s
Bit rate : 128 kb/s
Channel(s) : 2 channels
Channel layout : L R
Sampling rate : 44.1 kHz
Frame rate : 43.066 FPS (1024 SPF)
Compression mode : Lossy
Stream size : 21.7 MiB (2%)
Title : AAC 2.0 @ 128 kb/s
Language : Japanese
Default : Yes
Forced : No

Audio #2
ID : 3
Format : AAC LC
Format/Info : Advanced Audio Codec Low Complexity
Codec ID : A_AAC-2
Duration : 23 min 40 s
Bit rate : 128 kb/s
Channel(s) : 2 channels
Channel layout : L R
Sampling rate : 44.1 kHz
Frame rate : 43.066 FPS (1024 SPF)
Compression mode : Lossy
Stream size : 21.7 MiB (2%)
Title : AAC 2.0 @ 128 kb/s
Language : English
Default : No
Forced : No

Text #1
ID : 4
Format : ASS
Codec ID : S_TEXT/ASS
Codec ID/Info : Advanced Sub Station Alpha
Duration : 23 min 31 s
Bit rate : 3 283 b/s
Frame rate : 6.270 FPS
Count of elements : 8850
Compression mode : Lossless
Stream size : 566 KiB (0%)
Title : English [Chihiro]
Language : English
Default : Yes
Forced : No

Text #2
ID : 5
Format : ASS
Codec ID : S_TEXT/ASS
Codec ID/Info : Advanced Sub Station Alpha
Duration : 21 min 6 s
Bit rate : 3 529 b/s
Frame rate : 6.732 FPS
Count of elements : 8529
Compression mode : Lossless
Stream size : 546 KiB (0%)
Title : English Forced [Chihiro]
Language : English
Default : No
Forced : Yes

Text #3
ID : 6
Format : ASS
Codec ID : S_TEXT/ASS
Codec ID/Info : Advanced Sub Station Alpha
Duration : 22 min 2 s
Bit rate : 113 b/s
Frame rate : 0.245 FPS
Count of elements : 324
Compression mode : Lossless
Stream size : 18.4 KiB (0%)
Title : English [CR]
Language : English
Default : No
Forced : No

Text #4
ID : 7
Format : ASS
Codec ID : S_TEXT/ASS
Codec ID/Info : Advanced Sub Station Alpha
Duration : 8 min 37 s
Bit rate : 6 b/s
Frame rate : 0.006 FPS
Count of elements : 3
Compression mode : Lossless
Stream size : 424 Bytes (0%)
Title : English Forced [CR]
Language : English
Default : No
Forced : No

Text #5
ID : 8
Format : ASS
Codec ID : S_TEXT/ASS
Codec ID/Info : Advanced Sub Station Alpha
Duration : 22 min 2 s
Bit rate : 138 b/s
Frame rate : 0.245 FPS
Count of elements : 324
Compression mode : Lossless
Stream size : 22.4 KiB (0%)
Title : Arabic (SA) [CR]
Language : Arabic
Default : No
Forced : No

Text #6
ID : 9
Format : ASS
Codec ID : S_TEXT/ASS
Codec ID/Info : Advanced Sub Station Alpha
Duration : 22 min 22 s
Bit rate : 118 b/s
Frame rate : 0.241 FPS
Count of elements : 323
Compression mode : Lossless
Stream size : 19.4 KiB (0%)
Title : German [CR]
Language : German
Default : No
Forced : No

Text #7
ID : 10
Format : ASS
Codec ID : S_TEXT/ASS
Codec ID/Info : Advanced Sub Station Alpha
Duration : 23 min 35 s
Bit rate : 108 b/s
Frame rate : 0.225 FPS
Count of elements : 318
Compression mode : Lossless
Stream size : 18.7 KiB (0%)
Title : Spanish [CR]
Language : Spanish
Default : No
Forced : No

Text #8
ID : 11
Format : ASS
Codec ID : S_TEXT/ASS
Codec ID/Info : Advanced Sub Station Alpha
Duration : 23 min 35 s
Bit rate : 106 b/s
Frame rate : 0.225 FPS
Count of elements : 319
Compression mode : Lossless
Stream size : 18.5 KiB (0%)
Title : Spanish (Latin America) [CR]
Language : Spanish
Default : No
Forced : No

Text #9
ID : 12
Format : ASS
Codec ID : S_TEXT/ASS
Codec ID/Info : Advanced Sub Station Alpha
Duration : 23 min 35 s
Bit rate : 113 b/s
Frame rate : 0.223 FPS
Count of elements : 315
Compression mode : Lossless
Stream size : 19.6 KiB (0%)
Title : French [CR]
Language : French
Default : No
Forced : No

Text #10
ID : 13
Format : ASS
Codec ID : S_TEXT/ASS
Codec ID/Info : Advanced Sub Station Alpha
Duration : 22 min 2 s
Bit rate : 136 b/s
Frame rate : 0.253 FPS
Count of elements : 335
Compression mode : Lossless
Stream size : 22.0 KiB (0%)
Title : Italian [CR]
Language : Italian
Default : No
Forced : No

Text #11
ID : 14
Format : ASS
Codec ID : S_TEXT/ASS
Codec ID/Info : Advanced Sub Station Alpha
Duration : 23 min 34 s
Bit rate : 108 b/s
Frame rate : 0.263 FPS
Count of elements : 372
Compression mode : Lossless
Stream size : 18.8 KiB (0%)
Title : Malay (MY) [CR]
Language : Malay
Default : No
Forced : No

Text #12
ID : 15
Format : ASS
Codec ID : S_TEXT/ASS
Codec ID/Info : Advanced Sub Station Alpha
Duration : 22 min 2 s
Bit rate : 124 b/s
Frame rate : 0.246 FPS
Count of elements : 325
Compression mode : Lossless
Stream size : 20.2 KiB (0%)
Title : Portuguese (BR) [CR]
Language : Portuguese
Default : No
Forced : No

Text #13
ID : 16
Format : ASS
Codec ID : S_TEXT/ASS
Codec ID/Info : Advanced Sub Station Alpha
Duration : 22 min 2 s
Bit rate : 155 b/s
Frame rate : 0.249 FPS
Count of elements : 330
Compression mode : Lossless
Stream size : 25.1 KiB (0%)
Title : Russian [CR]
Language : Russian
Default : No
Forced : No

Menu
00:00:00.000 : :Prologue
00:02:15.010 : :Opening
00:03:45.016 : :Chiyu Mahou no Machigatta Tsukaikata 05
00:22:09.995 : :Ending





The Wrong Way To Use Healing Magic S01E05


The Wrong Way To Use Healing Magic S01E05


The Wrong Way To Use Healing Magic S01E05


The Wrong Way To Use Healing Magic S01E05