Tags
Language
Tags
April 2024
Su Mo Tu We Th Fr Sa
31 1 2 3 4 5 6
7 8 9 10 11 12 13
14 15 16 17 18 19 20
21 22 23 24 25 26 27
28 29 30 1 2 3 4

The Wrong Way to Use Healing Magic - S01E04

Posted By: Otaku
The Wrong Way to Use Healing Magic - S01E04

The Wrong Way to Use Healing Magic - S01E04
MKV | 1280x720 | English | H264 @ 4000 kbps | AAC @ 128.0 kbps | 23 min 50 s | 702 MiB
Subtitles: English



[Yameii] The Wrong Way to Use Healing Magic - S01E04 [English Dub] [CR WEB-DL 720p] [23EDF36E].mkv (702.2 MB)



General
Complete name : ./[Yameii] The Wrong Way to Use Healing Magic - S01E04 [English Dub] [CR WEB-DL 720p] [23EDF36E].mkv
Format : Matroska
Format version : Version 4
File size : 702 MiB
Duration : 23 min 50 s
Overall bit rate : 4 119 kb/s
Writing application : NULL
Writing library : NULL
Attachments : impact.ttf / ariblk.ttf / timesbd.ttf

Video
ID : 1
Format : AVC
Format/Info : Advanced Video Codec
Format profile : High@L4
Format settings : CABAC / 6 Ref Frames
Format settings, CABAC : Yes
Format settings, Reference frames : 6 frames
Codec ID : V_MPEG4/ISO/AVC
Duration : 23 min 50 s
Bit rate : 4 000 kb/s
Width : 1 280 pixels
Height : 720 pixels
Display aspect ratio : 16:9
Frame rate mode : Constant
Frame rate : 23.976 (24000/1001) FPS
Color space : YUV
Chroma subsampling : 4:2:0
Bit depth : 8 bits
Scan type : Progressive
Bits/(Pixel*Frame) : 0.181
Stream size : 679 MiB (97%)
Title : Crunchyroll WEB-DL
Writing library : x264 core 164
Encoding settings : cabac=1 / ref=6 / deblock=1:1:1 / analyse=0x3:0x113 / me=hex / subme=8 / psy=1 / psy_rd=0.40:0.00 / mixed_ref=1 / me_range=16 / chroma_me=1 / trellis=2 / 8x8dct=1 / cqm=0 / deadzone=21,11 / fast_pskip=1 / chroma_qp_offset=-2 / threads=9 / lookahead_threads=1 / sliced_threads=0 / nr=0 / decimate=1 / interlaced=0 / bluray_compat=0 / constrained_intra=0 / bframes=0 / weightp=2 / keyint=96 / keyint_min=48 / scenecut=40 / intra_refresh=0 / rc_lookahead=48 / rc=2pass / mbtree=1 / bitrate=4000 / ratetol=1.0 / qcomp=0.60 / qpmin=0 / qpmax=69 / qpstep=4 / cplxblur=20.0 / qblur=0.5 / vbv_maxrate=6000 / vbv_bufsize=9000 / nal_hrd=none / filler=0 / ip_ratio=1.40 / aq=1:0.60
Default : Yes
Forced : No

Audio
ID : 2
Format : AAC LC
Format/Info : Advanced Audio Codec Low Complexity
Codec ID : A_AAC-2
Duration : 23 min 50 s
Bit rate : 128 kb/s
Channel(s) : 2 channels
Channel layout : L R
Sampling rate : 44.1 kHz
Frame rate : 43.066 FPS (1024 SPF)
Compression mode : Lossy
Stream size : 21.8 MiB (3%)
Title : English Dub
Language : English
Default : Yes
Forced : No

Text
ID : 3
Format : ASS
Codec ID : S_TEXT/ASS
Codec ID/Info : Advanced Sub Station Alpha
Duration : 11 min 24 s
Bit rate : 14 b/s
Frame rate : 0.013 FPS
Count of elements : 9
Compression mode : Lossless
Stream size : 1.24 KiB (0%)
Title : English Signs
Language : English
Default : Yes
Forced : No

Menu
00:00:00.000 : en:Episode
00:00:47.000 : en:Ending
00:02:17.000 : en:Epilogue





The Wrong Way to Use Healing Magic - S01E04


The Wrong Way to Use Healing Magic - S01E04


The Wrong Way to Use Healing Magic - S01E04


The Wrong Way to Use Healing Magic - S01E04