Tags
Language
Tags
July 2024
Su Mo Tu We Th Fr Sa
30 1 2 3 4 5 6
7 8 9 10 11 12 13
14 15 16 17 18 19 20
21 22 23 24 25 26 27
28 29 30 31 1 2 3

Watashi no Oshi wa Akuyaku Reijou S01E09

Posted By: Otaku
Watashi no Oshi wa Akuyaku Reijou S01E09

Watashi no Oshi wa Akuyaku Reijou S01E09
BDRip | MKV | 1920x1080 | English / 日本語 | H265 @ 12572 kbps | Opus @ 191.344 kbps | 24 min 3 s | 2.17 GiB
Subtitles: English



Watashi.no.Oshi.wa.Akuyaku.Reijou.S01E09.1080p.BluRay.Opus2.0.H.265-smol.mkv (2.2 GB)



General
Unique ID : 171012037719120938645072567900683526005 (0x80A7B86E0F8BEE858C26FB3BCB8A5F75)
Complete name : ./Watashi.no.Oshi.wa.Akuyaku.Reijou.S01E09.1080p.BluRay.Opus2.0.H.265-smol.mkv
Format : Matroska
Format version : Version 4
File size : 2.17 GiB
Duration : 24 min 3 s
Overall bit rate : 12.9 Mb/s
Movie name : [smol] Watashi no Oshi wa Akuyaku Reijou. - 1x09 - My Master Will Never Change
Encoded date : UTC 2024-03-10 13:07:26
Writing application : mkvmerge v82.0 ('I'm The President') 64-bit
Writing library : libebml v1.4.5 + libmatroska v1.7.1
Cover : Yes
Attachments : cover.png / 00426.TTF / arial-Bold.TTF / HouseHolidaySans.TTF / TimesNewRoman-Bold.TTF / UbuntuMedium-Medium.TTF / alido.otf / GandhiSans-Bold.OTF / GandhiSans-BoldItalic.OTF / hiroshige-Bold.otf / masqualero-Bold.OTF

Video
ID : 1
Format : HEVC
Format/Info : High Efficiency Video Coding
Format profile : Main 10@L4@Main
Codec ID : V_MPEGH/ISO/HEVC
Duration : 24 min 2 s
Bit rate : 12.6 Mb/s
Width : 1 920 pixels
Height : 1 080 pixels
Display aspect ratio : 16:9
Frame rate mode : Constant
Frame rate : 23.976 (24000/1001) FPS
Color space : YUV
Chroma subsampling : 4:2:0 (Type 0)
Bit depth : 10 bits
Bits/(Pixel*Frame) : 0.253
Stream size : 2.11 GiB (97%)
Title : Encoded by smolkitten
Writing library : x265 3.6 [smolkitten's Star of David Edition/13900k]:[Windows][GCC 13.1.0][64 bit] 10bit
Encoding settings : cpuid=1111039 / frame-threads=5 / numa-pools=32 / wpp / no-pmode / no-pme / no-psnr / no-ssim / log-level=2 / csv / csv-log-level=0 / input-csp=1 / input-res=1920x1080 / interlace=0 / total-frames=34575 / level-idc=0 / high-tier=1 / uhd-bd=0 / ref=5 / no-allow-non-conformance / no-repeat-headers / annexb / no-aud / no-hrd / info / hash=0 / no-temporal-layers / no-open-gop / min-keyint=23 / keyint=250 / gop-lookahead=0 / bframes=12 / b-adapt=2 / b-pyramid / bframe-bias=0 / rc-lookahead=60 / lookahead-slices=0 / scenecut=40 / hist-scenecut=0 / radl=0 / no-splice / no-intra-refresh / ctu=64 / min-cu-size=8 / no-rect / no-discard-params / no-amp / max-tu-size=32 / tu-inter-depth=2 / tu-intra-depth=2 / limit-tu=0 / rdoq-level=2 / dynamic-rd=0.00 / no-ssim-rd / signhide / no-tskip / nr-intra=0 / nr-inter=0 / no-constrained-intra / no-strong-intra-smoothing / max-merge=5 / limit-refs=1 / no-limit-modes / me=3 / subme=5 / merange=57 / temporal-mvp / no-frame-dup / no-hme / weightp / weightb / no-analyze-src-pics / deblock=-2:-2 / no-sao / no-sao-non-deblock / rd=3 / selective-sao=0 / no-early-skip / no-rskip / no-fast-intra / no-tskip-fast / no-cu-lossless / b-intra / no-splitrd-skip / rdpenalty=0 / psy-rd=2.00 / psy-rdoq=2.00 / no-rd-refine / no-lossless / cbqpoffs=-5 / crqpoffs=-5 / rc=crf / crf=13.3 / qcomp=0.73 / qpstep=4 / stats-write=0 / stats-read=0 / ipratio=1.40 / pbratio=1.30 / aq-mode=3 / aq-strength=0.85 / aq-bias-strength=1.00 / no-cutree / zone-count=0 / no-strict-cbr / qg-size=32 / no-rc-grain / qpmax=69 / qpmin=0 / no-const-vbv / sar=1 / overscan=0 / videoformat=5 / range=0 / colorprim=1 / transfer=1 / colormatrix=1 / chromaloc=1 / chromaloc-top=0 / chromaloc-bottom=0 / display-window=0 / cll=0,0 / min-luma=64 / max-luma=940 / log2-max-poc-lsb=8 / vui-timing-info / vui-hrd-info / slices=1 / no-opt-qp-pps / no-opt-ref-list-length-pps / no-multi-pass-opt-rps / scenecut-bias=0.05 / hist-threshold=0.03 / no-opt-cu-delta-qp / no-aq-motion / no-hdr10 / no-hdr10-opt / no-dhdr10-opt / no-idr-recovery-sei / analysis-reuse-level=0 / analysis-save-reuse-level=0 / analysis-load-reuse-level=0 / scale-factor=0 / refine-intra=0 / refine-inter=0 / refine-mv=1 / refine-ctu-distortion=0 / no-limit-sao / ctu-info=0 / no-lowpass-dct / refine-analysis-type=0 / copy-pic=1 / max-ausize-factor=1.0 / no-dynamic-refine / no-single-sei / no-hevc-aq / no-svt / no-field / qp-adaptation-range=1.00 / scenecut-aware-qp=0 / conformance-window-offsets / right=0 / bottom=0 / decoder-max-rate=0 / no-vbv-live-multi-pass
Language : Japanese
Default : Yes
Forced : No
Color range : Limited
Color primaries : BT.709
Transfer characteristics : BT.709
Matrix coefficients : BT.709

Audio #1
ID : 2
Format : Opus
Codec ID : A_OPUS
Duration : 24 min 2 s
Bit rate : 191 kb/s
Channel(s) : 2 channels
Channel layout : L R
Sampling rate : 48.0 kHz
Frame rate : 50.000 FPS (960 SPF)
Compression mode : Lossy
Stream size : 32.9 MiB (1%)
Title : Japanese 2.0
Writing library : opusenc from opus-tools-smol 0.2-32-smolkitten-Judea-and-Samaria
Language : Japanese
Default : Yes
Forced : No
ENCODER_OPTIONS : –bitrate 192

Audio #2
ID : 3
Format : AAC LC
Format/Info : Advanced Audio Codec Low Complexity
Codec ID : A_AAC-2
Duration : 24 min 3 s
Bit rate : 128 kb/s
Channel(s) : 2 channels
Channel layout : L R
Sampling rate : 44.1 kHz
Frame rate : 43.066 FPS (1024 SPF)
Compression mode : Lossy
Delay relative to video : 4 ms
Stream size : 22.0 MiB (1%)
Title : English 2.0
Language : English
Default : Yes
Forced : No

Text #1
ID : 4
Format : ASS
Codec ID : S_TEXT/ASS
Codec ID/Info : Advanced Sub Station Alpha
Duration : 23 min 58 s
Bit rate : 2 332 b/s
Frame rate : 0.603 FPS
Count of elements : 868
Compression mode : Lossless
Stream size : 410 KiB (0%)
Title : Full subtitles [smol]
Language : English
Default : Yes
Forced : No

Text #2
ID : 5
Format : ASS
Codec ID : S_TEXT/ASS
Codec ID/Info : Advanced Sub Station Alpha
Duration : 23 min 58 s
Bit rate : 2 332 b/s
Frame rate : 0.603 FPS
Count of elements : 868
Compression mode : Lossless
Stream size : 410 KiB (0%)
Title : Signs/Songs [smol]
Language : English
Default : No
Forced : Yes

Menu
00:00:00.000 : en:Prologue
00:03:37.009 : en:OP
00:05:06.974 : en:Title
00:05:11.979 : en:Part A
00:15:41.024 : en:Part B
00:22:17.087 : en:ED
00:23:47.052 : en:Preview
00:24:00.566 : en:Next Episode Title





Watashi no Oshi wa Akuyaku Reijou S01E09


Watashi no Oshi wa Akuyaku Reijou S01E09


Watashi no Oshi wa Akuyaku Reijou S01E09


Watashi no Oshi wa Akuyaku Reijou S01E09