Tags
Language
Tags
July 2024
Su Mo Tu We Th Fr Sa
30 1 2 3 4 5 6
7 8 9 10 11 12 13
14 15 16 17 18 19 20
21 22 23 24 25 26 27
28 29 30 31 1 2 3

Yu-Gi-Oh! Go Rush!! - Episode 108

Posted By: Otaku
Yu-Gi-Oh! Go Rush!! - Episode 108

Yu-Gi-Oh! Go Rush!! - Episode 108
MKV | 1280x720 | 日本語 | H264 @ 3654 kbps | AAC @ 252.375 kbps | 24 min 20 s | 682 MiB
Subtitles: English



[entameSubs] Yu-Gi-Oh! Go Rush!! - Episode 108 [720p].mkv (681.9 MB)



General
Unique ID : 312393223625501890612780248661401118644 (0xEB04BF12C9359C5CD3C8E6106B99A7B4)
Complete name : ./[entameSubs] Yu-Gi-Oh! Go Rush!! - Episode 108 [720p].mkv
Format : Matroska
Format version : Version 4
File size : 682 MiB
Duration : 24 min 20 s
Overall bit rate : 3 918 kb/s
Encoded date : UTC 2024-05-15 17:31:07
Writing application : mkvmerge v63.0.0 ('Everything') 64-bit
Writing library : libebml v1.4.2 + libmatroska v1.6.4
Attachments : arialbd_0.ttf / Armorhide_0.ttf / ERASDEMI_0.TTF / BRLNSDB_0.TTF / Asparagus Sprouts_0.ttf / Video-Bold_0.ttf / SephoraSans-Medium_0.ttf

Video
ID : 1
Format : AVC
Format/Info : Advanced Video Codec
Format profile : High 10@L3.1
Format settings : CABAC / 4 Ref Frames
Format settings, CABAC : Yes
Format settings, Reference frames : 4 frames
Codec ID : V_MPEG4/ISO/AVC
Duration : 24 min 19 s
Bit rate : 3 655 kb/s
Width : 1 280 pixels
Height : 720 pixels
Display aspect ratio : 16:9
Frame rate mode : Constant
Frame rate : 29.970 (30000/1001) FPS
Color space : YUV
Chroma subsampling : 4:2:0
Bit depth : 10 bits
Scan type : Progressive
Bits/(Pixel*Frame) : 0.132
Stream size : 636 MiB (93%)
Writing library : x264 core 157 r2935M 545de2f
Encoding settings : cabac=1 / ref=3 / deblock=1:0:0 / analyse=0x3:0x113 / me=hex / subme=7 / psy=1 / psy_rd=1.00:0.00 / mixed_ref=1 / me_range=16 / chroma_me=1 / trellis=1 / 8x8dct=1 / cqm=0 / deadzone=21,11 / fast_pskip=1 / chroma_qp_offset=-2 / threads=22 / lookahead_threads=3 / sliced_threads=0 / nr=0 / decimate=1 / interlaced=0 / bluray_compat=0 / stitchable=1 / constrained_intra=0 / bframes=3 / b_pyramid=2 / b_adapt=1 / b_bias=0 / direct=1 / weightb=1 / open_gop=0 / weightp=2 / keyint=250 / keyint_min=25 / scenecut=40 / intra_refresh=0 / rc_lookahead=40 / rc=crf / mbtree=1 / crf=17.5 / qcomp=0.60 / qpmin=0 / qpmax=81 / qpstep=4 / ip_ratio=1.40 / aq=1:1.00
Language : Japanese
Default : Yes
Forced : No

Audio
ID : 2
Format : AAC LC
Format/Info : Advanced Audio Codec Low Complexity
Codec ID : A_AAC-2
Duration : 24 min 19 s
Bit rate : 252 kb/s
Channel(s) : 2 channels
Channel layout : L R
Sampling rate : 48.0 kHz
Frame rate : 46.875 FPS (1024 SPF)
Compression mode : Lossy
Stream size : 43.9 MiB (6%)
Language : Japanese
Default : Yes
Forced : No

Text
ID : 3
Format : ASS
Codec ID : S_TEXT/ASS
Codec ID/Info : Advanced Sub Station Alpha
Duration : 24 min 16 s
Bit rate : 768 b/s
Frame rate : 0.867 FPS
Count of elements : 1263
Compression mode : Lossless
Stream size : 137 KiB (0%)
Title : entameSubs
Language : English
Default : Yes
Forced : No





Yu-Gi-Oh! Go Rush!! - Episode 108


Yu-Gi-Oh! Go Rush!! - Episode 108


Yu-Gi-Oh! Go Rush!! - Episode 108


Yu-Gi-Oh! Go Rush!! - Episode 108