Featured TV Shows


13 Reasons Why S01E03

Posted By: Tavaz
1080p (FullHD) / WEB-DL IMDb
13 Reasons Why S01E03

13 Reasons Why S01E03
WEB-DL | MKV | 1920x1080 | English / Spanish / Spanish / French / German / Italian / Portuguese / Polish / Turkish / Japanese / English | H264 @ 4640 kbps | E-AC-3 @ 640 kbps | 57 min 17 s | 4.63 GiB
Subtitles: Swedish, Turkish, Romanian, Dutch, Korean, Danish, Indonesian, Hungarian, Vietnamese, French, Norwegian, Russian, Thai, Finnish, Spanish, Greek, English, Italian, Portuguese, Chinese, German, Japanese, Czech, Hebrew, Polish, Arabic
Genre: Drama, Mystery


After a teenage girl's perplexing suicide, a classmate receives a series of tapes that unravel the mystery of her tragic choice.

dfd03f2d604f49d4b0b34ed73f80b6ba.mkv (4.6 GB)



General
Unique ID : 41378178540730362306441324470982160010 (0x1F2125B614A1E2C99557341A815C2E8A)
Complete name : ./dfd03f2d604f49d4b0b34ed73f80b6ba.mkv
Format : Matroska
Format version : Version 4 / Version 2
File size : 4.63 GiB
Duration : 57 min 17 s
Overall bit rate mode : Variable
Overall bit rate : 11.6 Mb/s
Encoded date : UTC 2019-09-03 01:51:20
Writing application : mkvmerge v35.0.0 ('All The Love In The World') 64-bit
Writing library : libebml v1.3.9 + libmatroska v1.5.2

Video
ID : 1
Format : AVC
Format/Info : Advanced Video Codec
Format profile : Main@L4
Format settings : CABAC / 3 Ref Frames
Format settings, CABAC : Yes
Format settings, RefFrames : 3 frames
Codec ID : V_MPEG4/ISO/AVC
Duration : 57 min 16 s
Bit rate mode : Variable
Bit rate : 4 640 kb/s
Maximum bit rate : 6 960 kb/s
Width : 1 920 pixels
Height : 1 080 pixels
Display aspect ratio : 16:9
Frame rate mode : Constant
Frame rate : 23.976 (24000/1001) FPS
Color space : YUV
Chroma subsampling : 4:2:0
Bit depth : 8 bits
Scan type : Progressive
Bits/(Pixel*Frame) : 0.093
Stream size : 1.81 GiB (39%)
Writing library : x264 core 148 r2715 7e75228
Encoding settings : cabac=1 / ref=3 / deblock=1:0:0 / analyse=0x1:0x111 / me=umh / subme=10 / psy=1 / psy_rd=1.00:0.00 / mixed_ref=1 / me_range=24 / chroma_me=1 / trellis=2 / 8x8dct=0 / cqm=0 / deadzone=21,11 / fast_pskip=1 / chroma_qp_offset=-2 / threads=6 / lookahead_threads=1 / sliced_threads=0 / nr=0 / decimate=1 / interlaced=0 / bluray_compat=0 / stitchable=1 / constrained_intra=0 / bframes=2 / b_pyramid=0 / b_adapt=2 / b_bias=0 / direct=3 / weightb=1 / open_gop=0 / weightp=2 / keyint=48 / keyint_min=25 / scenecut=0 / intra_refresh=0 / rc_lookahead=48 / rc=2pass / mbtree=1 / bitrate=4640 / ratetol=1.0 / qcomp=0.50 / qpmin=6 / qpmax=51 / qpstep=4 / cplxblur=20.0 / qblur=0.5 / vbv_maxrate=6960 / vbv_bufsize=9280 / nal_hrd=vbr / filler=0 / ip_ratio=1.40 / aq=1:1.00
Default : Yes
Forced : No

Audio #1
ID : 2
Format : E-AC-3
Format/Info : Enhanced Audio Coding 3
Format settings, Endianness : Big
Codec ID : A_EAC3
Duration : 57 min 17 s
Bit rate mode : Constant
Bit rate : 640 kb/s
Channel(s) : 6 channels
Channel positions : Front: L C R, Side: L R, LFE
Sampling rate : 48.0 kHz
Frame rate : 187.500 FPS (256 SPF)
Compression mode : Lossy
Stream size : 262 MiB (6%)
Title : English
Language : English
Service kind : Complete Main
Default : Yes
Forced : No

Audio #2
ID : 3
Format : E-AC-3
Format/Info : Enhanced Audio Coding 3
Format settings, Endianness : Big
Codec ID : A_EAC3
Duration : 57 min 17 s
Bit rate mode : Constant
Bit rate : 640 kb/s
Channel(s) : 6 channels
Channel positions : Front: L C R, Side: L R, LFE
Sampling rate : 48.0 kHz
Frame rate : 187.500 FPS (256 SPF)
Compression mode : Lossy
Stream size : 262 MiB (6%)
Title : Castilian
Language : Spanish
Service kind : Complete Main
Default : No
Forced : No

Audio #3
ID : 4
Format : E-AC-3
Format/Info : Enhanced Audio Coding 3
Format settings, Endianness : Big
Codec ID : A_EAC3
Duration : 57 min 17 s
Bit rate mode : Constant
Bit rate : 640 kb/s
Channel(s) : 6 channels
Channel positions : Front: L C R, Side: L R, LFE
Sampling rate : 48.0 kHz
Frame rate : 187.500 FPS (256 SPF)
Compression mode : Lossy
Stream size : 262 MiB (6%)
Title : Spanish
Language : Spanish
Service kind : Complete Main
Default : No
Forced : No

Audio #4
ID : 5
Format : E-AC-3
Format/Info : Enhanced Audio Coding 3
Format settings, Endianness : Big
Codec ID : A_EAC3
Duration : 57 min 17 s
Bit rate mode : Constant
Bit rate : 640 kb/s
Channel(s) : 6 channels
Channel positions : Front: L C R, Side: L R, LFE
Sampling rate : 48.0 kHz
Frame rate : 187.500 FPS (256 SPF)
Compression mode : Lossy
Stream size : 262 MiB (6%)
Title : French
Language : French
Service kind : Complete Main
Default : No
Forced : No

Audio #5
ID : 6
Format : E-AC-3
Format/Info : Enhanced Audio Coding 3
Format settings, Endianness : Big
Codec ID : A_EAC3
Duration : 57 min 17 s
Bit rate mode : Constant
Bit rate : 640 kb/s
Channel(s) : 6 channels
Channel positions : Front: L C R, Side: L R, LFE
Sampling rate : 48.0 kHz
Frame rate : 187.500 FPS (256 SPF)
Compression mode : Lossy
Stream size : 262 MiB (6%)
Title : German
Language : German
Service kind : Complete Main
Default : No
Forced : No

Audio #6
ID : 7
Format : E-AC-3
Format/Info : Enhanced Audio Coding 3
Format settings, Endianness : Big
Codec ID : A_EAC3
Duration : 57 min 17 s
Bit rate mode : Constant
Bit rate : 640 kb/s
Channel(s) : 6 channels
Channel positions : Front: L C R, Side: L R, LFE
Sampling rate : 48.0 kHz
Frame rate : 187.500 FPS (256 SPF)
Compression mode : Lossy
Stream size : 262 MiB (6%)
Title : Italian
Language : Italian
Service kind : Complete Main
Default : No
Forced : No

Audio #7
ID : 8
Format : E-AC-3
Format/Info : Enhanced Audio Coding 3
Format settings, Endianness : Big
Codec ID : A_EAC3
Duration : 57 min 17 s
Bit rate mode : Constant
Bit rate : 640 kb/s
Channel(s) : 6 channels
Channel positions : Front: L C R, Side: L R, LFE
Sampling rate : 48.0 kHz
Frame rate : 187.500 FPS (256 SPF)
Compression mode : Lossy
Stream size : 262 MiB (6%)
Title : Brazilian Portuguese
Language : Portuguese
Service kind : Complete Main
Default : No
Forced : No

Audio #8
ID : 9
Format : E-AC-3
Format/Info : Enhanced Audio Coding 3
Format settings, Endianness : Big
Codec ID : A_EAC3
Duration : 57 min 17 s
Bit rate mode : Constant
Bit rate : 640 kb/s
Channel(s) : 6 channels
Channel positions : Front: L C R, Side: L R, LFE
Sampling rate : 48.0 kHz
Frame rate : 187.500 FPS (256 SPF)
Compression mode : Lossy
Stream size : 262 MiB (6%)
Title : Polish
Language : Polish
Service kind : Complete Main
Default : No
Forced : No

Audio #9
ID : 10
Format : E-AC-3
Format/Info : Enhanced Audio Coding 3
Format settings, Endianness : Big
Codec ID : A_EAC3
Duration : 57 min 17 s
Bit rate mode : Constant
Bit rate : 640 kb/s
Channel(s) : 6 channels
Channel positions : Front: L C R, Side: L R, LFE
Sampling rate : 48.0 kHz
Frame rate : 187.500 FPS (256 SPF)
Compression mode : Lossy
Stream size : 262 MiB (6%)
Title : Turkish
Language : Turkish
Service kind : Complete Main
Default : No
Forced : No

Audio #10
ID : 11
Format : E-AC-3
Format/Info : Enhanced Audio Coding 3
Format settings, Endianness : Big
Codec ID : A_EAC3
Duration : 57 min 17 s
Bit rate mode : Constant
Bit rate : 640 kb/s
Channel(s) : 6 channels
Channel positions : Front: L C R, Side: L R, LFE
Sampling rate : 48.0 kHz
Frame rate : 187.500 FPS (256 SPF)
Compression mode : Lossy
Stream size : 262 MiB (6%)
Title : Japanese
Language : Japanese
Service kind : Complete Main
Default : No
Forced : No

Audio #11
ID : 12
Format : E-AC-3
Format/Info : Enhanced Audio Coding 3
Format settings, Endianness : Big
Codec ID : A_EAC3
Duration : 57 min 17 s
Bit rate mode : Constant
Bit rate : 640 kb/s
Channel(s) : 6 channels
Channel positions : Front: L C R, Side: L R, LFE
Sampling rate : 48.0 kHz
Frame rate : 187.500 FPS (256 SPF)
Compression mode : Lossy
Stream size : 262 MiB (6%)
Title : English (Audio Description)
Language : English
Service kind : Complete Main
Default : No
Forced : No

Text #1
ID : 13
Format : UTF-8
Codec ID : S_TEXT/UTF8
Codec ID/Info : UTF-8 Plain Text
Duration : 54 min 55 s
Bit rate : 77 b/s
Count of elements : 981
Stream size : 31.2 KiB (0%)
Title : English [SDH]
Language : English
Default : No
Forced : No

Text #2
ID : 14
Format : UTF-8
Codec ID : S_TEXT/UTF8
Codec ID/Info : UTF-8 Plain Text
Duration : 55 min 12 s
Bit rate : 0 b/s
Count of elements : 14
Stream size : 311 Bytes (0%)
Title : Castilian [Forced]
Language : Spanish
Default : No
Forced : Yes

Text #3
ID : 15
Format : UTF-8
Codec ID : S_TEXT/UTF8
Codec ID/Info : UTF-8 Plain Text
Duration : 55 min 12 s
Bit rate : 61 b/s
Count of elements : 902
Stream size : 24.9 KiB (0%)
Title : Castilian [Full]
Language : Spanish
Default : No
Forced : No

Text #4
ID : 16
Format : UTF-8
Codec ID : S_TEXT/UTF8
Codec ID/Info : UTF-8 Plain Text
Duration : 55 min 12 s
Bit rate : 0 b/s
Count of elements : 17
Stream size : 365 Bytes (0%)
Title : Spanish [Forced]
Language : Spanish
Default : No
Forced : Yes

Text #5
ID : 17
Format : UTF-8
Codec ID : S_TEXT/UTF8
Codec ID/Info : UTF-8 Plain Text
Duration : 55 min 12 s
Bit rate : 66 b/s
Count of elements : 828
Stream size : 26.8 KiB (0%)
Title : Spanish [Full]
Language : Spanish
Default : No
Forced : No

Text #6
ID : 18
Format : UTF-8
Codec ID : S_TEXT/UTF8
Codec ID/Info : UTF-8 Plain Text
Duration : 55 min 12 s
Bit rate : 0 b/s
Count of elements : 13
Stream size : 270 Bytes (0%)
Title : French [Forced]
Language : French
Default : No
Forced : Yes

Text #7
ID : 19
Format : UTF-8
Codec ID : S_TEXT/UTF8
Codec ID/Info : UTF-8 Plain Text
Duration : 55 min 11 s
Bit rate : 66 b/s
Count of elements : 896
Stream size : 26.8 KiB (0%)
Title : French [Full]
Language : French
Default : No
Forced : No

Text #8
ID : 20
Format : UTF-8
Codec ID : S_TEXT/UTF8
Codec ID/Info : UTF-8 Plain Text
Duration : 55 min 9 s
Bit rate : 0 b/s
Count of elements : 13
Stream size : 325 Bytes (0%)
Title : German [Forced]
Language : German
Default : No
Forced : Yes

Text #9
ID : 21
Format : UTF-8
Codec ID : S_TEXT/UTF8
Codec ID/Info : UTF-8 Plain Text
Duration : 55 min 12 s
Bit rate : 66 b/s
Count of elements : 901
Stream size : 27.0 KiB (0%)
Title : German [Full]
Language : German
Default : No
Forced : No

Text #10
ID : 22
Format : UTF-8
Codec ID : S_TEXT/UTF8
Codec ID/Info : UTF-8 Plain Text
Duration : 55 min 12 s
Bit rate : 0 b/s
Count of elements : 11
Stream size : 268 Bytes (0%)
Title : Italian [Forced]
Language : Italian
Default : No
Forced : Yes

Text #11
ID : 23
Format : UTF-8
Codec ID : S_TEXT/UTF8
Codec ID/Info : UTF-8 Plain Text
Duration : 55 min 12 s
Bit rate : 60 b/s
Count of elements : 888
Stream size : 24.6 KiB (0%)
Title : Italian [Full]
Language : Italian
Default : No
Forced : No

Text #12
ID : 24
Format : UTF-8
Codec ID : S_TEXT/UTF8
Codec ID/Info : UTF-8 Plain Text
Duration : 55 min 12 s
Bit rate : 65 b/s
Count of elements : 892
Stream size : 26.5 KiB (0%)
Title : Portuguese [Full]
Language : Portuguese
Default : No
Forced : No

Text #13
ID : 25
Format : UTF-8
Codec ID : S_TEXT/UTF8
Codec ID/Info : UTF-8 Plain Text
Duration : 55 min 12 s
Bit rate : 0 b/s
Count of elements : 12
Stream size : 273 Bytes (0%)
Title : Brazilian Portuguese [Forced]
Language : Portuguese
Default : No
Forced : Yes

Text #14
ID : 26
Format : UTF-8
Codec ID : S_TEXT/UTF8
Codec ID/Info : UTF-8 Plain Text
Duration : 55 min 12 s
Bit rate : 66 b/s
Count of elements : 805
Stream size : 27.0 KiB (0%)
Title : Brazilian Portuguese [Full]
Language : Portuguese
Default : No
Forced : No

Text #15
ID : 27
Format : UTF-8
Codec ID : S_TEXT/UTF8
Codec ID/Info : UTF-8 Plain Text
Duration : 55 min 12 s
Bit rate : 0 b/s
Count of elements : 8
Stream size : 195 Bytes (0%)
Title : Polish [Forced]
Language : Polish
Default : No
Forced : Yes

Text #16
ID : 28
Format : UTF-8
Codec ID : S_TEXT/UTF8
Codec ID/Info : UTF-8 Plain Text
Duration : 55 min 12 s
Bit rate : 57 b/s
Count of elements : 838
Stream size : 23.2 KiB (0%)
Title : Polish [Full]
Language : Polish
Default : No
Forced : No

Text #17
ID : 29
Format : UTF-8
Codec ID : S_TEXT/UTF8
Codec ID/Info : UTF-8 Plain Text
Duration : 55 min 12 s
Bit rate : 0 b/s
Count of elements : 13
Stream size : 326 Bytes (0%)
Title : Turkish [Forced]
Language : Turkish
Default : No
Forced : Yes

Text #18
ID : 30
Format : UTF-8
Codec ID : S_TEXT/UTF8
Codec ID/Info : UTF-8 Plain Text
Duration : 55 min 12 s
Bit rate : 66 b/s
Count of elements : 898
Stream size : 27.0 KiB (0%)
Title : Turkish [Full]
Language : Turkish
Default : No
Forced : No

Text #19
ID : 31
Format : UTF-8
Codec ID : S_TEXT/UTF8
Codec ID/Info : UTF-8 Plain Text
Duration : 55 min 12 s
Bit rate : 66 b/s
Count of elements : 836
Stream size : 26.7 KiB (0%)
Title : Swedish [Full]
Language : Swedish
Default : No
Forced : No

Text #20
ID : 32
Format : UTF-8
Codec ID : S_TEXT/UTF8
Codec ID/Info : UTF-8 Plain Text
Duration : 55 min 13 s
Bit rate : 66 b/s
Count of elements : 902
Stream size : 26.9 KiB (0%)
Title : Danish [Full]
Language : Danish
Default : No
Forced : No

Text #21
ID : 33
Format : UTF-8
Codec ID : S_TEXT/UTF8
Codec ID/Info : UTF-8 Plain Text
Duration : 55 min 12 s
Bit rate : 58 b/s
Count of elements : 801
Stream size : 23.5 KiB (0%)
Title : Finnish [Full]
Language : Finnish
Default : No
Forced : No

Text #22
ID : 34
Format : UTF-8
Codec ID : S_TEXT/UTF8
Codec ID/Info : UTF-8 Plain Text
Duration : 55 min 12 s
Bit rate : 61 b/s
Count of elements : 794
Stream size : 24.7 KiB (0%)
Title : Dutch [Full]
Language : Dutch
Default : No
Forced : No

Text #23
ID : 35
Format : UTF-8
Codec ID : S_TEXT/UTF8
Codec ID/Info : UTF-8 Plain Text
Duration : 55 min 12 s
Bit rate : 61 b/s
Count of elements : 898
Stream size : 24.9 KiB (0%)
Title : Norwegian [Full]
Language : Norwegian
Default : No
Forced : No

Text #24
ID : 36
Format : UTF-8
Codec ID : S_TEXT/UTF8
Codec ID/Info : UTF-8 Plain Text
Duration : 56 min 55 s
Bit rate : 95 b/s
Count of elements : 898
Stream size : 40.0 KiB (0%)
Title : Russian [Full]
Language : Russian
Default : No
Forced : No

Text #25
ID : 37
Format : UTF-8
Codec ID : S_TEXT/UTF8
Codec ID/Info : UTF-8 Plain Text
Duration : 56 min 28 s
Bit rate : 66 b/s
Count of elements : 782
Stream size : 27.5 KiB (0%)
Title : Hungarian [Full]
Language : Hungarian
Default : No
Forced : No

Text #26
ID : 38
Format : UTF-8
Codec ID : S_TEXT/UTF8
Codec ID/Info : UTF-8 Plain Text
Duration : 55 min 12 s
Bit rate : 111 b/s
Count of elements : 862
Stream size : 45.3 KiB (0%)
Title : Greek [Full]
Language : Greek
Default : No
Forced : No

Text #27
ID : 39
Format : UTF-8
Codec ID : S_TEXT/UTF8
Codec ID/Info : UTF-8 Plain Text
Duration : 55 min 12 s
Bit rate : 96 b/s
Count of elements : 906
Stream size : 39.1 KiB (0%)
Title : Hebrew [Full]
Language : Hebrew
Default : No
Forced : No

Text #28
ID : 40
Format : UTF-8
Codec ID : S_TEXT/UTF8
Codec ID/Info : UTF-8 Plain Text
Duration : 55 min 12 s
Bit rate : 107 b/s
Count of elements : 853
Stream size : 43.3 KiB (0%)
Title : Arabic [Full]
Language : Arabic
Default : No
Forced : No

Text #29
ID : 41
Format : UTF-8
Codec ID : S_TEXT/UTF8
Codec ID/Info : UTF-8 Plain Text
Duration : 55 min 12 s
Bit rate : 64 b/s
Count of elements : 895
Stream size : 26.2 KiB (0%)
Title : Romanian [Full]
Language : Romanian
Default : No
Forced : No

Text #30
ID : 42
Format : UTF-8
Codec ID : S_TEXT/UTF8
Codec ID/Info : UTF-8 Plain Text
Duration : 55 min 10 s
Bit rate : 60 b/s
Count of elements : 892
Stream size : 24.3 KiB (0%)
Title : Czech [Full]
Language : Czech
Default : No
Forced : No

Text #31
ID : 43
Format : UTF-8
Codec ID : S_TEXT/UTF8
Codec ID/Info : UTF-8 Plain Text
Duration : 55 min 8 s
Bit rate : 65 b/s
Count of elements : 908
Stream size : 26.6 KiB (0%)
Title : Indonesian [Full]
Language : Indonesian
Default : No
Forced : No

Text #32
ID : 44
Format : UTF-8
Codec ID : S_TEXT/UTF8
Codec ID/Info : UTF-8 Plain Text
Duration : 55 min 10 s
Bit rate : 76 b/s
Count of elements : 876
Stream size : 31.0 KiB (0%)
Title : Vietnamese [Full]
Language : Vietnamese
Default : No
Forced : No

Text #33
ID : 45
Format : UTF-8
Codec ID : S_TEXT/UTF8
Codec ID/Info : UTF-8 Plain Text
Duration : 55 min 12 s
Bit rate : 160 b/s
Count of elements : 903
Stream size : 64.7 KiB (0%)
Title : Thai [Full]
Language : Thai
Default : No
Forced : No

Text #34
ID : 46
Format : UTF-8
Codec ID : S_TEXT/UTF8
Codec ID/Info : UTF-8 Plain Text
Duration : 55 min 12 s
Bit rate : 67 b/s
Count of elements : 904
Stream size : 27.3 KiB (0%)
Title : Korean [Full]
Language : Korean
Default : No
Forced : No

Text #35
ID : 47
Format : UTF-8
Codec ID : S_TEXT/UTF8
Codec ID/Info : UTF-8 Plain Text
Duration : 55 min 12 s
Bit rate : 61 b/s
Count of elements : 905
Stream size : 25.1 KiB (0%)
Title : Chinese (Simplified) [Full]
Language : Chinese
Default : No
Forced : No

Text #36
ID : 48
Format : UTF-8
Codec ID : S_TEXT/UTF8
Codec ID/Info : UTF-8 Plain Text
Duration : 55 min 13 s
Bit rate : 63 b/s
Count of elements : 906
Stream size : 25.5 KiB (0%)
Title : Chinese (Traditional) [Full]
Language : Chinese
Default : No
Forced : No

Text #37
ID : 49
Format : UTF-8
Codec ID : S_TEXT/UTF8
Codec ID/Info : UTF-8 Plain Text
Duration : 56 min 41 s
Bit rate : 0 b/s
Count of elements : 13
Stream size : 419 Bytes (0%)
Title : Japanese [Forced]
Language : Japanese
Default : No
Forced : Yes

Text #38
ID : 50
Format : UTF-8
Codec ID : S_TEXT/UTF8
Codec ID/Info : UTF-8 Plain Text
Duration : 56 min 41 s
Bit rate : 54 b/s
Count of elements : 798
Stream size : 22.6 KiB (0%)
Title : Japanese [Full]
Language : Japanese
Default : No
Forced : No





13 Reasons Why S01E03


13 Reasons Why S01E03


13 Reasons Why S01E03


13 Reasons Why S01E03


13 Reasons Why S01E03

All episodes