Index
# A B C D E F G H I J K L M N O P Q R S T U V W Y Z
Tags
Language
Tags

Featured TV Shows


Doctor Who S01E01

Posted By: Tavaz
720p (HD) / BDRip IMDb
Doctor Who S01E01

Doctor Who S01E01
BDRip | MKV | 1256x720 | English | H265 @ 650 kbps | AAC @ 63 kbps | 47 min 54 s | 246 MiB
Genre: Drama


The Doctor is a Time Lord: a 900 year old alien with 2 hearts, part of a gifted civilization who mastered time travel. The Doctor saves planets for a living – more of a hobby actually, and the Doctor's very, very good at it.

166.Doctor.Who.2005.S01E08.720p.BluRay.x265-HETeam.mkv (231.6 MB)
165.Doctor.Who.2005.S01E07.720p.BluRay.x265-HETeam.mkv (239.0 MB)
169.Doctor.Who.2005.S01E11.720p.BluRay.x265-HETeam.mkv (233.0 MB)
167.Doctor.Who.2005.S01E09.720p.BluRay.x265-HETeam.mkv (224.4 MB)
163.Doctor.Who.2005.S01E05.720p.BluRay.x265-HETeam.mkv (231.1 MB)
162.Doctor.Who.2005.S01E04.720p.BluRay.x265-HETeam.mkv (243.5 MB)
164.Doctor.Who.2005.S01E06.720p.BluRay.x265-HETeam.mkv (244.0 MB)
170.Doctor.Who.2005.S01E12.720p.BluRay.x265-HETeam.mkv (230.5 MB)
168.Doctor.Who.2005.S01E10.720p.BluRay.x265-HETeam.mkv (230.1 MB)
159.Doctor.Who.2005.S01E01.720p.BluRay.x265-HETeam.mkv (237.5 MB)
171.Doctor.Who.2005.S01E13.720p.BluRay.x265-HETeam.mkv (245.6 MB)
160.Doctor.Who.2005.S01E02.720p.BluRay.x265-HETeam.mkv (239.9 MB)
161.Doctor.Who.2005.S01E03.720p.BluRay.x265-HETeam.mkv (240.9 MB)



General
Unique ID : 214376583954356686027230951435294185534 (0xA1476DA1390653CF8868CA3CC15F983E)
Complete name : ./171.Doctor.Who.2005.S01E13.720p.BluRay.x265-HETeam.mkv
Format : Matroska
Format version : Version 4 / Version 2
File size : 246 MiB
Duration : 47 min 54 s
Overall bit rate : 717 kb/s
Encoded date : UTC 2018-09-16 08:28:48
Writing application : mkvmerge v9.6.0 ('Slave To Your Mind') 64bit
Writing library : libebml v1.3.4 + libmatroska v1.4.5

Video
ID : 2
Format : HEVC
Format/Info : High Efficiency Video Coding
Format profile : Main@L3.1@Main
Codec ID : V_MPEGH/ISO/HEVC
Duration : 47 min 54 s
Bit rate : 651 kb/s
Width : 1 256 pixels
Height : 720 pixels
Display aspect ratio : 16:9
Frame rate mode : Constant
Frame rate : 23.976 (24000/1001) FPS
Color space : YUV
Chroma subsampling : 4:2:0
Bit depth : 8 bits
Bits/(Pixel*Frame) : 0.030
Stream size : 223 MiB (91%)
Default : Yes
Forced : No
Color range : Limited
Color primaries : BT.709
Transfer characteristics : BT.709
Matrix coefficients : BT.709

Audio
ID : 3
Format : AAC
Format/Info : Advanced Audio Codec
Format profile : HE-AAC / LC
Format settings : Explicit
Codec ID : A_AAC-2
Duration : 47 min 54 s
Bit rate : 64.0 kb/s
Channel(s) : 2 channels
Channel positions : Front: L R
Sampling rate : 48.0 kHz / 24.0 kHz
Frame rate : 23.438 FPS (1024 SPF)
Compression mode : Lossy
Delay relative to video : -4 ms
Stream size : 21.9 MiB (9%)
Default : Yes
Forced : No

Text
ID : 1
Format : UTF-8
Codec ID : S_TEXT/UTF8
Codec ID/Info : UTF-8 Plain Text
Duration : 46 min 34 s
Bit rate : 60 b/s
Count of elements : 530
Stream size : 20.5 KiB (0%)
Default : Yes
Forced : No





Doctor Who S01E01


Doctor Who S01E01


Doctor Who S01E01


Doctor Who S01E01


Doctor Who S01E01

All episodes