Featured TV Shows


800 Words S03E14

Posted By: Tavaz
SD / WEB-DL IMDb
800 Words S03E14

800 Words S03E14
WEB-DL | MOV | 896x504 | H264 @ 896 kbps | AAC @ 128 kbps | 43 min 7 s | 317 MiB
Genre: Comedy, Drama

A recently widowed father, quits his job as a popular 800 word columnist for a top selling Sydney newspaper. Over the internet he buys a house on an impulse in a remote New Zealand seaside town. He then has to break the news to his two teenage kids who just lost their mum, and now face an even more uncertain future. But the colourful and inquisitive locals ensure his dream of a fresh start does not go to plan.

800.Words.S03E14.WEB-DL.x264-MFO.mp4 (317.5 MB)



General
Complete name : ./800.Words.S03E14.WEB-DL.x264-MFO.mp4
Format : MPEG-4
Format profile : Base Media
Codec ID : isom (isom/iso2/avc1/mp41)
File size : 317 MiB
Duration : 43 min 7 s
Overall bit rate : 1 029 kb/s
Writing application : Lavf57.83.100

Video
ID : 1
Format : AVC
Format/Info : Advanced Video Codec
Format profile : High@L3.1
Format settings : CABAC / 5 Ref Frames
Format settings, CABAC : Yes
Format settings, RefFrames : 5 frames
Codec ID : avc1
Codec ID/Info : Advanced Video Coding
Duration : 43 min 7 s
Bit rate : 896 kb/s
Width : 896 pixels
Height : 504 pixels
Display aspect ratio : 16:9
Frame rate mode : Constant
Frame rate : 25.000 FPS
Color space : YUV
Chroma subsampling : 4:2:0
Bit depth : 8 bits
Scan type : Progressive
Bits/(Pixel*Frame) : 0.079
Stream size : 277 MiB (87%)
Writing library : x264 core 148 r2795 aaa9aa8
Encoding settings : cabac=1 / ref=5 / deblock=1:0:0 / analyse=0x3:0x113 / me=hex / subme=7 / psy=1 / psy_rd=1.00:0.00 / mixed_ref=1 / me_range=16 / chroma_me=1 / trellis=1 / 8x8dct=1 / cqm=0 / deadzone=21,11 / fast_pskip=1 / chroma_qp_offset=-2 / threads=8 / lookahead_threads=8 / sliced_threads=1 / slices=8 / nr=0 / decimate=1 / interlaced=0 / bluray_compat=0 / constrained_intra=0 / bframes=0 / weightp=2 / keyint=250 / keyint_min=25 / scenecut=40 / intra_refresh=0 / rc=abr / mbtree=0 / bitrate=896 / ratetol=1.0 / qcomp=0.60 / qpmin=0 / qpmax=69 / qpstep=4 / ip_ratio=1.40 / aq=1:1.00

Audio
ID : 2
Format : AAC
Format/Info : Advanced Audio Codec
Format profile : LC
Codec ID : mp4a-40-2
Duration : 43 min 7 s
Bit rate mode : Constant
Bit rate : 128 kb/s
Channel(s) : 2 channels
Channel positions : Front: L R
Sampling rate : 48.0 kHz
Frame rate : 46.875 FPS (1024 SPF)
Compression mode : Lossy
Stream size : 39.5 MiB (12%)
Default : Yes
Alternate group : 1





800 Words S03E14


800 Words S03E14


800 Words S03E14


800 Words S03E14


800 Words S03E14

All episodes