Featured TV Shows


A Gifted Man S01E06

Posted By: Tavaz
1080p (FullHD) / WEB-DL IMDb
A Gifted Man S01E06

A Gifted Man S01E06
WEB-DL | MKV | 1920x1080 | English | H264 @ 12221 kbps | E-AC-3 @ 640 kbps | 41 min 55 s | 3.77 GiB
Subtitles: English
Genre: Drama

A Gifted Man is an American television series, which premiered on CBS on September 23, 2011. The series is about a talented but self-absorbed surgeon who starts questioning his purpose in life when he is visited by the spirit of his deceased ex-wife. The pilot episode was directed by Jonathan Demme, who also serves as an executive producer on the show along with writer Susannah Grant. The first thirteen episodes were aired in the Friday 8:00 pm timeslot, while the final three episodes of the 16 episode season order were aired in the Friday 9:00 pm timeslot.

On May 10, 2012, A Gifted Man was canceled by CBS.

e57407df56dd42ebbb9eea72001c5d6b.mkv (3.8 GB)



General
Unique ID : 237892596627983492242653109569203461888 (0xB2F87291F0F5B60580CB5573E6CFDF00)
Complete name : ./e57407df56dd42ebbb9eea72001c5d6b.mkv
Format : Matroska
Format version : Version 4 / Version 2
File size : 3.77 GiB
Duration : 41 min 55 s
Overall bit rate mode : Variable
Overall bit rate : 12.9 Mb/s
Movie name : A.Gifted Man.S01E06.1080p.WEB-DL.DD5.1.H.264-JOOP
Encoded date : UTC 2016-08-29 10:17:21
Writing application : mkvmerge v9.4.0 ('Knurl') 64bit
Writing library : libebml v1.3.4 + libmatroska v1.4.5

Video
ID : 1
Format : AVC
Format/Info : Advanced Video Codec
Format profile : High@L4
Format settings : CABAC / 4 Ref Frames
Format settings, CABAC : Yes
Format settings, RefFrames : 4 frames
Codec ID : V_MPEG4/ISO/AVC
Duration : 41 min 55 s
Bit rate mode : Variable
Bit rate : 12.2 Mb/s
Maximum bit rate : 15.0 Mb/s
Width : 1 920 pixels
Height : 1 080 pixels
Display aspect ratio : 16:9
Frame rate mode : Constant
Frame rate : 23.976 (24000/1001) FPS
Color space : YUV
Chroma subsampling : 4:2:0
Bit depth : 8 bits
Scan type : Progressive
Bits/(Pixel*Frame) : 0.246
Stream size : 3.58 GiB (95%)
Title : A.Gifted Man.S01E06.1080p.WEB-DL.DD5.1.H.264-JOOP
Writing library : x264 core 148 r2623 d5b2374
Encoding settings : cabac=1 / ref=4 / deblock=1:-1:-1 / analyse=0x3:0x133 / me=umh / subme=9 / psy=1 / psy_rd=1.00:0.15 / mixed_ref=1 / me_range=24 / chroma_me=1 / trellis=2 / 8x8dct=1 / cqm=0 / deadzone=21,11 / fast_pskip=1 / chroma_qp_offset=-3 / threads=34 / lookahead_threads=5 / sliced_threads=0 / nr=150 / decimate=1 / interlaced=0 / bluray_compat=0 / constrained_intra=0 / bframes=8 / b_pyramid=2 / b_adapt=2 / b_bias=0 / direct=3 / weightb=1 / open_gop=0 / weightp=2 / keyint=120 / keyint_min=61 / scenecut=0 / intra_refresh=0 / rc_lookahead=120 / rc=crf / mbtree=1 / crf=18.0 / qcomp=0.60 / qpmin=0 / qpmax=69 / qpstep=4 / vbv_maxrate=15000 / vbv_bufsize=31250 / crf_max=0.0 / nal_hrd=vbr / filler=0 / ip_ratio=1.40 / aq=3:1.00
Default : Yes
Forced : No
Color range : Limited
Color primaries : BT.709
Transfer characteristics : BT.709
Matrix coefficients : BT.709

Audio
ID : 2
Format : E-AC-3
Format/Info : Enhanced Audio Coding 3
Format settings, Endianness : Big
Codec ID : A_EAC3
Duration : 41 min 55 s
Bit rate mode : Constant
Bit rate : 640 kb/s
Channel(s) : 6 channels
Channel positions : Front: L C R, Side: L R, LFE
Sampling rate : 48.0 kHz
Frame rate : 187.500 FPS (256 SPF)
Compression mode : Lossy
Stream size : 192 MiB (5%)
Title : English
Language : English
Service kind : Complete Main
Default : Yes
Forced : No

Text
ID : 3
Format : UTF-8
Codec ID : S_TEXT/UTF8
Codec ID/Info : UTF-8 Plain Text
Duration : 41 min 18 s
Bit rate : 87 b/s
Count of elements : 859
Stream size : 26.5 KiB (0%)
Title : English
Language : English
Default : No
Forced : No





A Gifted Man S01E06


A Gifted Man S01E06


A Gifted Man S01E06


A Gifted Man S01E06


A Gifted Man S01E06

All episodes