Featured TV Shows


A Gifted Man S01E07

Posted By: Tavaz
720p (HD) / HDTV IMDb
A Gifted Man S01E07

A Gifted Man S01E07
HDTV | MKV | 1280x720 | English | H264 @ 3346 kbps | AC-3 @ 320 kbps | 43 min 16 s | 1.13 GiB
Genre: Drama

A Gifted Man is an American television series, which premiered on CBS on September 23, 2011. The series is about a talented but self-absorbed surgeon who starts questioning his purpose in life when he is visited by the spirit of his deceased ex-wife. The pilot episode was directed by Jonathan Demme, who also serves as an executive producer on the show along with writer Susannah Grant. The first thirteen episodes were aired in the Friday 8:00 pm timeslot, while the final three episodes of the 16 episode season order were aired in the Friday 9:00 pm timeslot.

On May 10, 2012, A Gifted Man was canceled by CBS.

04b7a38875734d89b2b90966af1faebb.mkv (1.1 GB)



General
Unique ID : 237916813812170045274297794763156998872 (0xB2FD1C91C757741585F77C55B719CAD8)
Complete name : ./04b7a38875734d89b2b90966af1faebb.mkv
Format : Matroska
Format version : Version 2
File size : 1.13 GiB
Duration : 43 min 16 s
Overall bit rate : 3 741 kb/s
Encoded date : UTC 2011-11-11 19:20:35
Writing application : mkvmerge v3.1.0 ('Happy up here') built on Jan 19 2010 12:09:24
Writing library : libebml v0.7.9 + libmatroska v0.8.1

Video
ID : 1
Format : AVC
Format/Info : Advanced Video Codec
Format profile : High@L4.1
Format settings : CABAC / 8 Ref Frames
Format settings, CABAC : Yes
Format settings, RefFrames : 8 frames
Codec ID : V_MPEG4/ISO/AVC
Duration : 43 min 16 s
Bit rate : 3 346 kb/s
Width : 1 280 pixels
Height : 720 pixels
Display aspect ratio : 16:9
Frame rate mode : Constant
Frame rate : 23.976 (24000/1001) FPS
Color space : YUV
Chroma subsampling : 4:2:0
Bit depth : 8 bits
Scan type : Progressive
Bits/(Pixel*Frame) : 0.151
Stream size : 1.01 GiB (89%)
Writing library : x264 core 119 r2106 07efeb4
Encoding settings : cabac=1 / ref=8 / deblock=1:-2:-2 / analyse=0x3:0x113 / me=umh / subme=9 / psy=1 / psy_rd=1.00:0.00 / mixed_ref=1 / me_range=24 / chroma_me=1 / trellis=1 / 8x8dct=1 / cqm=0 / deadzone=21,11 / fast_pskip=0 / chroma_qp_offset=-2 / threads=12 / sliced_threads=0 / nr=0 / decimate=1 / interlaced=0 / bluray_compat=0 / constrained_intra=0 / bframes=5 / b_pyramid=2 / b_adapt=1 / b_bias=0 / direct=1 / weightb=1 / open_gop=0 / weightp=2 / keyint=250 / keyint_min=23 / scenecut=40 / intra_refresh=0 / rc_lookahead=40 / rc=crf / mbtree=1 / crf=18.0 / qcomp=0.60 / qpmin=0 / qpmax=69 / qpstep=4 / ip_ratio=1.40 / aq=1:1.00
Language : English
Default : No
Forced : No

Audio
ID : 2
Format : AC-3
Format/Info : Audio Coding 3
Format settings, Endianness : Big
Codec ID : A_AC3
Duration : 43 min 16 s
Bit rate mode : Constant
Bit rate : 320 kb/s
Channel(s) : 2 channels
Channel positions : Front: L R
Sampling rate : 48.0 kHz
Frame rate : 31.250 FPS (1536 SPF)
Bit depth : 16 bits
Compression mode : Lossy
Stream size : 99.1 MiB (9%)
Service kind : Complete Main
Default : Yes
Forced : No





A Gifted Man S01E07


A Gifted Man S01E07


A Gifted Man S01E07


A Gifted Man S01E07


A Gifted Man S01E07

All episodes