Featured TV Shows


A Million Little Things S02E13

Posted By: Tavaz
720p (HD) / WEBRip IMDb
A Million Little Things S02E13

A Million Little Things S02E13
WEBRip | MKV | 1280x720 | English | H264 @ 4237 kbps | E-AC-3 @ 640 kbps | 42 min 17 s | 1.44 GiB
Subtitles: English
Genre: Drama


A group of friends from Boston who feel stuck in life experience an unexpected wake-up call after one of their friend dies unexpectedly.

41b0b1055f9742a98d70c255a624ed90.mkv (1.4 GB)



General
Unique ID : 249676568778168856844633910116526348476 (0xBBD5F540F0EFDC0B29F1B1916FC458BC)
Complete name : ./41b0b1055f9742a98d70c255a624ed90.mkv
Format : Matroska
Format version : Version 4 / Version 2
File size : 1.44 GiB
Duration : 42 min 17 s
Overall bit rate : 4 880 kb/s
Encoded date : UTC 2020-02-14 17:01:44
Writing application : mkvmerge v43.0.0 ('The Quartermaster') 64-bit
Writing library : libebml v1.3.10 + libmatroska v1.5.2

Video
ID : 1
Format : AVC
Format/Info : Advanced Video Codec
Format profile : High@L3.1
Format settings : CABAC / 4 Ref Frames
Format settings, CABAC : Yes
Format settings, RefFrames : 4 frames
Codec ID : V_MPEG4/ISO/AVC
Duration : 42 min 17 s
Bit rate mode : Constant
Bit rate : 4 238 kb/s
Nominal bit rate : 6 000 kb/s
Width : 1 280 pixels
Height : 720 pixels
Display aspect ratio : 16:9
Frame rate mode : Constant
Frame rate : 23.976 (24000/1001) FPS
Color space : YUV
Chroma subsampling : 4:2:0
Bit depth : 8 bits
Scan type : Progressive
Bits/(Pixel*Frame) : 0.192
Stream size : 1.25 GiB (87%)
Language : English
Default : Yes
Forced : No
Color range : Limited
Color primaries : BT.709
Transfer characteristics : BT.709
Matrix coefficients : BT.709

Audio
ID : 2
Format : E-AC-3
Format/Info : Enhanced Audio Coding 3
Format settings, Endianness : Big
Codec ID : A_EAC3
Duration : 42 min 17 s
Bit rate mode : Constant
Bit rate : 640 kb/s
Channel(s) : 6 channels
Channel positions : Front: L C R, Side: L R, LFE
Sampling rate : 48.0 kHz
Frame rate : 187.500 FPS (256 SPF)
Compression mode : Lossy
Stream size : 194 MiB (13%)
Language : English
Service kind : Complete Main
Default : Yes
Forced : No

Text
ID : 3
Format : UTF-8
Codec ID : S_TEXT/UTF8
Codec ID/Info : UTF-8 Plain Text
Duration : 42 min 15 s
Bit rate : 96 b/s
Count of elements : 1075
Stream size : 29.7 KiB (0%)
Title : English
Language : English
Default : No
Forced : No





A Million Little Things S02E13


A Million Little Things S02E13


A Million Little Things S02E13


A Million Little Things S02E13


A Million Little Things S02E13

All episodes