Featured TV Shows


Absentia S01E01

Posted By: Tavaz
1080p (FullHD) / WEB-DL IMDb
Absentia S01E01

Absentia S01E01
WEB-DL | MKV | 1920x1080 | English | H264 @ 6223 kbps | E-AC-3 @ 640 kbps | 50 min 35 s | 2.43 GiB
Subtitles: English
Genre: Crime, Drama, Mystery

A missing FBI agent reappears six years after being declared dead.

Absentia.S01E01.Comeback.1080p.AMZN.WEB-DL.DDP5.1.H.264-NTb.mkv (2.4 GB)



General
Unique ID : 215676842802164226727226262376391237480 (0xA241D9572B85434C93B0A1A61511DF68)
Complete name : ./Absentia.S01E01.Comeback.1080p.AMZN.WEB-DL.DDP5.1.H.264-NTb.mkv
Format : Matroska
Format version : Version 4 / Version 2
File size : 2.43 GiB
Duration : 50 min 35 s
Overall bit rate mode : Variable
Overall bit rate : 6 866 kb/s
Encoded date : UTC 2018-02-01 23:36:14
Writing application : mkvmerge v13.0.0 ('The Juggler') 64bit
Writing library : libebml v1.3.4 + libmatroska v1.4.5

Video
ID : 1
Format : AVC
Format/Info : Advanced Video Codec
Format profile : High@L4
Format settings : CABAC / 4 Ref Frames
Format settings, CABAC : Yes
Format settings, RefFrames : 4 frames
Codec ID : V_MPEG4/ISO/AVC
Duration : 50 min 35 s
Bit rate mode : Variable
Bit rate : 6 224 kb/s
Maximum bit rate : 15.0 Mb/s
Width : 1 920 pixels
Height : 1 080 pixels
Display aspect ratio : 16:9
Frame rate mode : Constant
Frame rate : 23.976 (24000/1001) FPS
Color space : YUV
Chroma subsampling : 4:2:0
Bit depth : 8 bits
Scan type : Progressive
Bits/(Pixel*Frame) : 0.125
Stream size : 2.20 GiB (91%)
Default : Yes
Forced : No
Color range : Limited
Color primaries : BT.709
Transfer characteristics : BT.709
Matrix coefficients : BT.709

Audio
ID : 2
Format : E-AC-3
Format/Info : Enhanced Audio Coding 3
Format settings, Endianness : Big
Codec ID : A_EAC3
Duration : 50 min 35 s
Bit rate mode : Constant
Bit rate : 640 kb/s
Channel(s) : 6 channels
Channel positions : Front: L C R, Side: L R, LFE
Sampling rate : 48.0 kHz
Frame rate : 187.500 FPS (256 SPF)
Compression mode : Lossy
Stream size : 232 MiB (9%)
Language : English
Service kind : Complete Main
Default : Yes
Forced : No

Text #1
ID : 3
Format : UTF-8
Codec ID : S_TEXT/UTF8
Codec ID/Info : UTF-8 Plain Text
Duration : 47 min 28 s
Bit rate : 46 b/s
Count of elements : 531
Stream size : 16.1 KiB (0%)
Language : English
Default : No
Forced : No

Text #2
ID : 4
Format : UTF-8
Codec ID : S_TEXT/UTF8
Codec ID/Info : UTF-8 Plain Text
Duration : 47 min 47 s
Bit rate : 46 b/s
Count of elements : 536
Stream size : 16.4 KiB (0%)
Title : SDH
Language : English
Default : No
Forced : No





Absentia S01E01


Absentia S01E01


Absentia S01E01


Absentia S01E01


Absentia S01E01

All episodes