Featured TV Shows


Absentia S01E01

Posted By: Tavaz
1080p (FullHD) / WEBRip IMDb
Absentia S01E01

Absentia S01E01
WEBRip | MKV | 1920x1080 | French / English | H264 @ 6251 kbps | E-AC-3 @ 640 kbps | 50 min 30 s | 2.66 GiB
Subtitles: French, English
Genre: Crime, Drama, Mystery

A missing FBI agent reappears six years after being declared dead.

4ba78bb06f34424a8d76c7196125e5a7.mkv (2.7 GB)



General
Unique ID : 175297341686184456933460408312262412159 (0x83E10A3A538F73CAE9BB49B3F47DC77F)
Complete name : ./4ba78bb06f34424a8d76c7196125e5a7.mkv
Format : Matroska
Format version : Version 4 / Version 2
File size : 2.66 GiB
Duration : 50 min 30 s
Overall bit rate mode : Variable
Overall bit rate : 7 534 kb/s
Encoded date : UTC 2019-01-06 12:19:56
Writing application : mkvmerge v25.0.0 ('Prog Noir') 64-bit
Writing library : libebml v1.3.6 + libmatroska v1.4.9

Video
ID : 1
Format : AVC
Format/Info : Advanced Video Codec
Format profile : High@L4
Format settings : CABAC / 4 Ref Frames
Format settings, CABAC : Yes
Format settings, RefFrames : 4 frames
Codec ID : V_MPEG4/ISO/AVC
Duration : 50 min 30 s
Bit rate mode : Variable
Bit rate : 6 251 kb/s
Maximum bit rate : 15.0 Mb/s
Width : 1 920 pixels
Height : 1 080 pixels
Display aspect ratio : 16:9
Frame rate mode : Constant
Frame rate : 23.976 (24000/1001) FPS
Color space : YUV
Chroma subsampling : 4:2:0
Bit depth : 8 bits
Scan type : Progressive
Bits/(Pixel*Frame) : 0.126
Stream size : 2.21 GiB (83%)
Default : Yes
Forced : No
Color range : Limited
Color primaries : BT.709
Transfer characteristics : BT.709
Matrix coefficients : BT.709

Audio #1
ID : 2
Format : E-AC-3
Format/Info : Enhanced Audio Coding 3
Format settings, Endianness : Big
Codec ID : A_EAC3
Duration : 50 min 30 s
Bit rate mode : Constant
Bit rate : 640 kb/s
Channel(s) : 6 channels
Channel positions : Front: L C R, Side: L R, LFE
Sampling rate : 48.0 kHz
Frame rate : 187.500 FPS (256 SPF)
Compression mode : Lossy
Stream size : 231 MiB (8%)
Title : French
Language : French
Service kind : Complete Main
Default : Yes
Forced : No

Audio #2
ID : 3
Format : E-AC-3
Format/Info : Enhanced Audio Coding 3
Format settings, Endianness : Big
Codec ID : A_EAC3
Duration : 50 min 30 s
Bit rate mode : Constant
Bit rate : 640 kb/s
Channel(s) : 6 channels
Channel positions : Front: L C R, Side: L R, LFE
Sampling rate : 48.0 kHz
Frame rate : 187.500 FPS (256 SPF)
Compression mode : Lossy
Stream size : 231 MiB (8%)
Title : English
Language : English
Service kind : Complete Main
Default : No
Forced : No

Text #1
ID : 4
Format : UTF-8
Codec ID : S_TEXT/UTF8
Codec ID/Info : UTF-8 Plain Text
Duration : 47 min 56 s
Bit rate : 43 b/s
Count of elements : 542
Stream size : 15.2 KiB (0%)
Title : French
Language : French
Default : No
Forced : No

Text #2
ID : 5
Format : UTF-8
Codec ID : S_TEXT/UTF8
Codec ID/Info : UTF-8 Plain Text
Duration : 47 min 47 s
Bit rate : 46 b/s
Count of elements : 536
Stream size : 16.4 KiB (0%)
Title : English (SDH)
Language : English
Default : No
Forced : No

Text #3
ID : 6
Format : UTF-8
Codec ID : S_TEXT/UTF8
Codec ID/Info : UTF-8 Plain Text
Duration : 46 min 48 s
Bit rate : 1 b/s
Count of elements : 12
Stream size : 421 Bytes (0%)
Title : French (Forced)
Language : French
Default : No
Forced : No





Absentia S01E01


Absentia S01E01


Absentia S01E01


Absentia S01E01


Absentia S01E01

All episodes