Featured TV Shows


Absentia S01E02

Posted By: Tavaz
1080p (FullHD) / WEBRip IMDb
Absentia S01E02

Absentia S01E02
WEBRip | MKV | 1920x1080 | French / English | H264 @ 5221 kbps | E-AC-3 @ 640 kbps | 41 min 58 s | 1.91 GiB
Subtitles: French, English
Genre: Crime, Drama, Mystery

A missing FBI agent reappears six years after being declared dead.

9b22feeca6594b4fb0ebfabdcc4cd780.mkv (1.9 GB)



General
Unique ID : 153543567365193888641650664383851658652 (0x73836A58AE5E267DC6C0509890DDFD9C)
Complete name : ./9b22feeca6594b4fb0ebfabdcc4cd780.mkv
Format : Matroska
Format version : Version 4 / Version 2
File size : 1.91 GiB
Duration : 41 min 58 s
Overall bit rate mode : Variable
Overall bit rate : 6 504 kb/s
Encoded date : UTC 2019-01-06 12:20:10
Writing application : mkvmerge v25.0.0 ('Prog Noir') 64-bit
Writing library : libebml v1.3.6 + libmatroska v1.4.9

Video
ID : 1
Format : AVC
Format/Info : Advanced Video Codec
Format profile : High@L4
Format settings : CABAC / 4 Ref Frames
Format settings, CABAC : Yes
Format settings, RefFrames : 4 frames
Codec ID : V_MPEG4/ISO/AVC
Duration : 41 min 58 s
Bit rate mode : Variable
Bit rate : 5 221 kb/s
Maximum bit rate : 15.0 Mb/s
Width : 1 920 pixels
Height : 1 080 pixels
Display aspect ratio : 16:9
Frame rate mode : Constant
Frame rate : 23.976 (24000/1001) FPS
Color space : YUV
Chroma subsampling : 4:2:0
Bit depth : 8 bits
Scan type : Progressive
Bits/(Pixel*Frame) : 0.105
Stream size : 1.53 GiB (80%)
Default : Yes
Forced : No
Color range : Limited
Color primaries : BT.709
Transfer characteristics : BT.709
Matrix coefficients : BT.709

Audio #1
ID : 2
Format : E-AC-3
Format/Info : Enhanced Audio Coding 3
Format settings, Endianness : Big
Codec ID : A_EAC3
Duration : 41 min 58 s
Bit rate mode : Constant
Bit rate : 640 kb/s
Channel(s) : 6 channels
Channel positions : Front: L C R, Side: L R, LFE
Sampling rate : 48.0 kHz
Frame rate : 187.500 FPS (256 SPF)
Compression mode : Lossy
Stream size : 192 MiB (10%)
Title : French
Language : French
Service kind : Complete Main
Default : Yes
Forced : No

Audio #2
ID : 3
Format : E-AC-3
Format/Info : Enhanced Audio Coding 3
Format settings, Endianness : Big
Codec ID : A_EAC3
Duration : 41 min 58 s
Bit rate mode : Constant
Bit rate : 640 kb/s
Channel(s) : 6 channels
Channel positions : Front: L C R, Side: L R, LFE
Sampling rate : 48.0 kHz
Frame rate : 187.500 FPS (256 SPF)
Compression mode : Lossy
Stream size : 192 MiB (10%)
Title : English
Language : English
Service kind : Complete Main
Default : No
Forced : No

Text #1
ID : 4
Format : UTF-8
Codec ID : S_TEXT/UTF8
Codec ID/Info : UTF-8 Plain Text
Duration : 41 min 52 s
Bit rate : 41 b/s
Count of elements : 450
Stream size : 12.7 KiB (0%)
Title : French
Language : French
Default : No
Forced : No

Text #2
ID : 5
Format : UTF-8
Codec ID : S_TEXT/UTF8
Codec ID/Info : UTF-8 Plain Text
Duration : 41 min 1 s
Bit rate : 48 b/s
Count of elements : 541
Stream size : 14.6 KiB (0%)
Title : English (SDH)
Language : English
Default : No
Forced : No





Absentia S01E02


Absentia S01E02


Absentia S01E02


Absentia S01E02


Absentia S01E02

All episodes