Featured TV Shows


Absentia S01E03

Posted By: Tavaz
Absentia S01E03

Absentia S01E03
MOV | 1280x720 | English | H264 @ 2208 kbps | AAC @ 132 kbps | 39 min 21 s | 660 MiB
Genre: Crime, Drama, Mystery


A missing FBI agent reappears six years after being declared dead.

Absentia S01E03 - Guilty (Schuldig) (German sub.).mp4 (660.2 MB)



General
Complete name : ./Absentia S01E03 - Guilty (Schuldig) (German sub.)/Absentia S01E03 - Guilty (Schuldig) (German sub.).mp4
Format : MPEG-4
Format profile : Base Media
Codec ID : isom (isom/iso2/avc1/mp41)
File size : 660 MiB
Duration : 39 min 21 s
Overall bit rate : 2 345 kb/s
Encoded date : UTC 2019-04-09 22:29:10
Tagged date : UTC 2019-04-09 22:29:10
Writing application : Lavf57.71.100

Video
ID : 1
Format : AVC
Format/Info : Advanced Video Codec
Format profile : Main@L3.1
Format settings : CABAC / 1 Ref Frames
Format settings, CABAC : Yes
Format settings, RefFrames : 1 frame
Format settings, GOP : M=1, N=25
Codec ID : avc1
Codec ID/Info : Advanced Video Coding
Duration : 39 min 21 s
Bit rate : 2 208 kb/s
Width : 1 280 pixels
Height : 720 pixels
Display aspect ratio : 16:9
Frame rate : 25.000 FPS
Color space : YUV
Chroma subsampling : 4:2:0
Bit depth : 8 bits
Scan type : Progressive
Bits/(Pixel*Frame) : 0.096
Stream size : 622 MiB (94%)
Encoded date : UTC 2019-04-09 22:29:10
Tagged date : UTC 2019-04-09 22:29:10

Audio
ID : 2
Format : AAC
Format/Info : Advanced Audio Codec
Format profile : LC
Codec ID : mp4a-40-2
Duration : 39 min 21 s
Bit rate mode : Constant
Bit rate : 132 kb/s
Channel(s) : 2 channels
Channel positions : Front: L R
Sampling rate : 48.0 kHz
Frame rate : 46.875 FPS (1024 SPF)
Compression mode : Lossy
Stream size : 37.3 MiB (6%)
Language : English
Default : Yes
Alternate group : 1
Encoded date : UTC 2019-04-09 22:29:10
Tagged date : UTC 2019-04-09 22:29:10





Absentia S01E03


Absentia S01E03


Absentia S01E03


Absentia S01E03


Absentia S01E03

All episodes