Featured TV Shows


Absentia S01E07

Posted By: Tavaz
1080p (FullHD) / WEBRip IMDb
Absentia S01E07

Absentia S01E07
WEBRip | MKV | 1920x1080 | French / English | H264 @ 4931 kbps | E-AC-3 @ 640 kbps | 41 min 19 s | 1.79 GiB
Subtitles: French, English
Genre: Crime, Drama, Mystery

A missing FBI agent reappears six years after being declared dead.

2e44db92d9c84edbaf361a6f5a358a45.mkv (1.8 GB)



General
Unique ID : 248745788325926355397056663250491213951 (0xBB22B23BFAB185E8528D0A71494D087F)
Complete name : ./2e44db92d9c84edbaf361a6f5a358a45.mkv
Format : Matroska
Format version : Version 4 / Version 2
File size : 1.79 GiB
Duration : 41 min 19 s
Overall bit rate mode : Variable
Overall bit rate : 6 214 kb/s
Encoded date : UTC 2019-01-06 12:21:16
Writing application : mkvmerge v25.0.0 ('Prog Noir') 64-bit
Writing library : libebml v1.3.6 + libmatroska v1.4.9

Video
ID : 1
Format : AVC
Format/Info : Advanced Video Codec
Format profile : High@L4
Format settings : CABAC / 4 Ref Frames
Format settings, CABAC : Yes
Format settings, RefFrames : 4 frames
Codec ID : V_MPEG4/ISO/AVC
Duration : 41 min 19 s
Bit rate mode : Variable
Bit rate : 4 931 kb/s
Maximum bit rate : 15.0 Mb/s
Width : 1 920 pixels
Height : 1 080 pixels
Display aspect ratio : 16:9
Frame rate mode : Constant
Frame rate : 23.976 (24000/1001) FPS
Color space : YUV
Chroma subsampling : 4:2:0
Bit depth : 8 bits
Scan type : Progressive
Bits/(Pixel*Frame) : 0.099
Stream size : 1.42 GiB (79%)
Default : Yes
Forced : No
Color range : Limited
Color primaries : BT.709
Transfer characteristics : BT.709
Matrix coefficients : BT.709

Audio #1
ID : 2
Format : E-AC-3
Format/Info : Enhanced Audio Coding 3
Format settings, Endianness : Big
Codec ID : A_EAC3
Duration : 41 min 19 s
Bit rate mode : Constant
Bit rate : 640 kb/s
Channel(s) : 6 channels
Channel positions : Front: L C R, Side: L R, LFE
Sampling rate : 48.0 kHz
Frame rate : 187.500 FPS (256 SPF)
Compression mode : Lossy
Stream size : 189 MiB (10%)
Title : French
Language : French
Service kind : Complete Main
Default : Yes
Forced : No

Audio #2
ID : 3
Format : E-AC-3
Format/Info : Enhanced Audio Coding 3
Format settings, Endianness : Big
Codec ID : A_EAC3
Duration : 41 min 19 s
Bit rate mode : Constant
Bit rate : 640 kb/s
Channel(s) : 6 channels
Channel positions : Front: L C R, Side: L R, LFE
Sampling rate : 48.0 kHz
Frame rate : 187.500 FPS (256 SPF)
Compression mode : Lossy
Stream size : 189 MiB (10%)
Title : English
Language : English
Service kind : Complete Main
Default : No
Forced : No

Text #1
ID : 4
Format : UTF-8
Codec ID : S_TEXT/UTF8
Codec ID/Info : UTF-8 Plain Text
Duration : 39 min 35 s
Bit rate : 56 b/s
Count of elements : 462
Stream size : 16.5 KiB (0%)
Title : French
Language : French
Default : No
Forced : No

Text #2
ID : 5
Format : UTF-8
Codec ID : S_TEXT/UTF8
Codec ID/Info : UTF-8 Plain Text
Duration : 38 min 49 s
Bit rate : 53 b/s
Count of elements : 497
Stream size : 15.1 KiB (0%)
Title : English (SDH)
Language : English
Default : No
Forced : No

Text #3
ID : 6
Format : UTF-8
Codec ID : S_TEXT/UTF8
Codec ID/Info : UTF-8 Plain Text
Duration : 39 min 23 s
Bit rate : 0 b/s
Count of elements : 4
Stream size : 144 Bytes (0%)
Title : French (Forced)
Language : French
Default : No
Forced : No





Absentia S01E07


Absentia S01E07


Absentia S01E07


Absentia S01E07


Absentia S01E07

All episodes