Featured TV Shows


Absentia S02E01

Posted By: Tavaz
1080p (FullHD) / HDTV IMDb
Absentia S02E01

Absentia S02E01
HDTV | MKV | 1920x1080 | French / English | H264 @ 5095 kbps | MPEG Audio @ 192 kbps | 41 min 26 s | 1.59 GiB
Subtitles: French
Genre: Crime, Drama, Mystery


A missing FBI agent reappears six years after being declared dead.

absentia.s02e01.multi.1080p.hdtv.h264-hybris.mkv (1.6 GB)



General
Unique ID : 111901676540039917374483835933935717049 (0x542F7A9D9E34FC3FDBD0A7D4D206CAB9)
Complete name : ./absentia.s02e01.multi.1080p.hdtv.h264-hybris.mkv
Format : Matroska
Format version : Version 4 / Version 2
File size : 1.59 GiB
Duration : 41 min 26 s
Overall bit rate : 5 482 kb/s
Encoded date : UTC 2019-05-16 16:05:11
Writing application : mkvmerge v33.1.0 ('Primrose') 32-bit
Writing library : libebml v1.3.7 + libmatroska v1.5.0

Video
ID : 1
Format : AVC
Format/Info : Advanced Video Codec
Format profile : High@L4
Format settings : CABAC / 4 Ref Frames
Format settings, CABAC : Yes
Format settings, RefFrames : 4 frames
Codec ID : V_MPEG4/ISO/AVC
Duration : 41 min 26 s
Bit rate : 5 096 kb/s
Width : 1 920 pixels
Height : 1 080 pixels
Display aspect ratio : 16:9
Frame rate mode : Constant
Frame rate : 25.000 FPS
Standard : Component
Color space : YUV
Chroma subsampling : 4:2:0
Bit depth : 8 bits
Scan type : MBAFF
Bits/(Pixel*Frame) : 0.098
Stream size : 1.48 GiB (93%)
Title : Absentia S02E01
Language : French
Default : Yes
Forced : No
Color range : Limited
Color primaries : BT.709
Transfer characteristics : BT.709
Matrix coefficients : BT.709

Audio #1
ID : 2
Format : MPEG Audio
Format version : Version 1
Format profile : Layer 2
Codec ID : A_MPEG/L2
Codec ID/Hint : MP2
Duration : 41 min 26 s
Bit rate mode : Constant
Bit rate : 192 kb/s
Channel(s) : 2 channels
Sampling rate : 48.0 kHz
Frame rate : 41.667 FPS (1152 SPF)
Compression mode : Lossy
Stream size : 56.9 MiB (4%)
Title : Français MP2 2.0
Language : French
Default : Yes
Forced : No

Audio #2
ID : 3
Format : MPEG Audio
Format version : Version 1
Format profile : Layer 2
Codec ID : A_MPEG/L2
Codec ID/Hint : MP2
Duration : 41 min 26 s
Bit rate mode : Constant
Bit rate : 192 kb/s
Channel(s) : 2 channels
Sampling rate : 48.0 kHz
Frame rate : 41.667 FPS (1152 SPF)
Compression mode : Lossy
Stream size : 56.9 MiB (4%)
Title : Anglais MP2 2.0
Language : English
Default : No
Forced : No

Text
ID : 5
Format : UTF-8
Codec ID : S_TEXT/UTF8
Codec ID/Info : UTF-8 Plain Text
Duration : 38 min 56 s
Bit rate : 44 b/s
Count of elements : 434
Stream size : 12.8 KiB (0%)
Title : Français
Language : French
Default : No
Forced : No





Absentia S02E01


Absentia S02E01


Absentia S02E01


Absentia S02E01


Absentia S02E01

All episodes