Featured TV Shows


Absentia S02E02

Posted By: Tavaz
1080p (FullHD) / HDTV IMDb
Absentia S02E02

Absentia S02E02
HDTV | MKV | 1920x1080 | French / English | H264 @ 4816 kbps | MPEG Audio @ 192 kbps | 40 min 26 s | 1.47 GiB
Subtitles: French
Genre: Crime, Drama, Mystery


A missing FBI agent reappears six years after being declared dead.

absentia.s02e02.multi.1080p.hdtv.h264-hybris.mkv (1.5 GB)



General
Unique ID : 102106747358046010930790035931081240105 (0x4CD10B526691BD51934EBCCB416C6E29)
Complete name : ./absentia.s02e02.multi.1080p.hdtv.h264-hybris.mkv
Format : Matroska
Format version : Version 4 / Version 2
File size : 1.47 GiB
Duration : 40 min 26 s
Overall bit rate : 5 203 kb/s
Encoded date : UTC 2019-05-16 16:17:47
Writing application : mkvmerge v33.1.0 ('Primrose') 32-bit
Writing library : libebml v1.3.7 + libmatroska v1.5.0

Video
ID : 1
Format : AVC
Format/Info : Advanced Video Codec
Format profile : High@L4
Format settings : CABAC / 4 Ref Frames
Format settings, CABAC : Yes
Format settings, RefFrames : 4 frames
Codec ID : V_MPEG4/ISO/AVC
Duration : 40 min 26 s
Bit rate : 4 817 kb/s
Width : 1 920 pixels
Height : 1 080 pixels
Display aspect ratio : 16:9
Frame rate mode : Constant
Frame rate : 25.000 FPS
Standard : Component
Color space : YUV
Chroma subsampling : 4:2:0
Bit depth : 8 bits
Scan type : MBAFF
Bits/(Pixel*Frame) : 0.093
Stream size : 1.36 GiB (93%)
Title : Absentia S02E02
Language : French
Default : Yes
Forced : No
Color range : Limited
Color primaries : BT.709
Transfer characteristics : BT.709
Matrix coefficients : BT.709

Audio #1
ID : 2
Format : MPEG Audio
Format version : Version 1
Format profile : Layer 2
Codec ID : A_MPEG/L2
Codec ID/Hint : MP2
Duration : 40 min 26 s
Bit rate mode : Constant
Bit rate : 192 kb/s
Channel(s) : 2 channels
Sampling rate : 48.0 kHz
Frame rate : 41.667 FPS (1152 SPF)
Compression mode : Lossy
Stream size : 55.5 MiB (4%)
Title : Français MP2 2.0
Language : French
Default : Yes
Forced : No

Audio #2
ID : 3
Format : MPEG Audio
Format version : Version 1
Format profile : Layer 2
Codec ID : A_MPEG/L2
Codec ID/Hint : MP2
Duration : 40 min 26 s
Bit rate mode : Constant
Bit rate : 192 kb/s
Channel(s) : 2 channels
Sampling rate : 48.0 kHz
Frame rate : 41.667 FPS (1152 SPF)
Compression mode : Lossy
Stream size : 55.5 MiB (4%)
Title : Anglais MP2 2.0
Language : English
Default : No
Forced : No

Text
ID : 5
Format : UTF-8
Codec ID : S_TEXT/UTF8
Codec ID/Info : UTF-8 Plain Text
Duration : 40 min 14 s
Bit rate : 57 b/s
Count of elements : 551
Stream size : 16.9 KiB (0%)
Title : Français
Language : French
Default : No
Forced : No





Absentia S02E02


Absentia S02E02


Absentia S02E02


Absentia S02E02


Absentia S02E02

All episodes