Featured TV Shows


Absentia S02E02

Posted By: Tavaz
720p (HD) / HDTV IMDb
Absentia S02E02

Absentia S02E02
HDTV | MKV | 1280x720 | English | H264 @ 2017 kbps | AC-3 @ 192 kbps | 40 min 15 s | 637 MiB
Genre: Crime, Drama, Mystery


A missing FBI agent reappears six years after being declared dead.

a-ab-0202-720-sp.mkv (14.1 MB)
a4o-ab-0202-720.mkv (636.8 MB)



General
Unique ID : 61329654656314913686753012034921390718 (0x2E23A96E39A4375E590C3B31C5AD627E)
Complete name : ./a4o-ab-0202-720.mkv
Format : Matroska
Format version : Version 2
File size : 637 MiB
Duration : 40 min 15 s
Overall bit rate : 2 212 kb/s
Encoded date : UTC 2019-04-13 13:36:15
Writing application : mkvmerge v32.0.0 ('Astral Progressions') 64-bit
Writing library : libebml v1.3.7 + libmatroska v1.5.0

Video
ID : 1
Format : AVC
Format/Info : Advanced Video Codec
Format profile : High@L4.1
Format settings : CABAC / 5 Ref Frames
Format settings, CABAC : Yes
Format settings, RefFrames : 5 frames
Codec ID : V_MPEG4/ISO/AVC
Duration : 40 min 15 s
Bit rate : 2 018 kb/s
Width : 1 280 pixels
Height : 720 pixels
Display aspect ratio : 16:9
Frame rate mode : Constant
Frame rate : 25.000 FPS
Color space : YUV
Chroma subsampling : 4:2:0
Bit depth : 8 bits
Scan type : Progressive
Bits/(Pixel*Frame) : 0.088
Stream size : 581 MiB (91%)
Writing library : x264 core 157 r2969 d4099dd
Encoding settings : cabac=1 / ref=5 / deblock=1:0:0 / analyse=0x3:0x113 / me=umh / subme=8 / psy=1 / psy_rd=1.00:0.00 / mixed_ref=1 / me_range=16 / chroma_me=1 / trellis=2 / 8x8dct=1 / cqm=0 / deadzone=21,11 / fast_pskip=1 / chroma_qp_offset=-2 / threads=12 / lookahead_threads=2 / sliced_threads=0 / nr=0 / decimate=1 / interlaced=0 / bluray_compat=0 / constrained_intra=0 / bframes=3 / b_pyramid=2 / b_adapt=1 / b_bias=0 / direct=1 / weightb=1 / open_gop=0 / weightp=2 / keyint=250 / keyint_min=25 / scenecut=40 / intra_refresh=0 / rc_lookahead=40 / rc=crf / mbtree=1 / crf=18.0 / qcomp=0.60 / qpmin=0 / qpmax=69 / qpstep=4 / ip_ratio=1.40 / aq=1:1.00
Default : Yes
Forced : No
Color range : Limited
Matrix coefficients : BT.709

Audio
ID : 2
Format : AC-3
Format/Info : Audio Coding 3
Format settings, Endianness : Big
Codec ID : A_AC3
Duration : 40 min 15 s
Bit rate mode : Constant
Bit rate : 192 kb/s
Channel(s) : 2 channels
Channel positions : Front: L R
Sampling rate : 48.0 kHz
Frame rate : 31.250 FPS (1536 SPF)
Bit depth : 16 bits
Compression mode : Lossy
Stream size : 55.3 MiB (9%)
Service kind : Complete Main
Default : Yes
Forced : No





Absentia S02E02


Absentia S02E02


Absentia S02E02


Absentia S02E02


Absentia S02E02

All episodes