Featured TV Shows


Absentia S02E03

Posted By: Tavaz
1080p (FullHD) / HDTV IMDb
Absentia S02E03

Absentia S02E03
HDTV | MKV | 1920x1080 | English | H264 @ 5996 kbps | MPEG Audio @ 128 kbps | 39 min 21 s | 1.68 GiB
Subtitles: English
Genre: Crime, Drama, Mystery

A missing FBI agent reappears six years after being declared dead.

Absentia.S02E03.1080p.HDTV.h264-SFM.mkv (1.7 GB)



General
Unique ID : 323787142984145842760749309068795279217 (0xF39722AB6A1483EDF8198C5964A57771)
Complete name : ./Absentia.S02E03.1080p.HDTV.h264-SFM.mkv
Format : Matroska
Format version : Version 4 / Version 2
File size : 1.68 GiB
Duration : 39 min 21 s
Overall bit rate : 6 127 kb/s
Encoded date : UTC 2019-04-09 21:24:18
Writing application : mkvmerge v27.0.0 ('Metropolis') 64-bit
Writing library : libebml v1.3.6 + libmatroska v1.4.9

Video
ID : 1
Format : AVC
Format/Info : Advanced Video Codec
Format profile : High@L4
Format settings : CABAC / 4 Ref Frames
Format settings, CABAC : Yes
Format settings, RefFrames : 4 frames
Codec ID : V_MPEG4/ISO/AVC
Duration : 39 min 21 s
Bit rate : 5 997 kb/s
Width : 1 920 pixels
Height : 1 080 pixels
Display aspect ratio : 16:9
Frame rate mode : Constant
Frame rate : 25.000 FPS
Standard : Component
Color space : YUV
Chroma subsampling : 4:2:0
Bit depth : 8 bits
Scan type : MBAFF
Scan type, store method : Interleaved fields
Scan order : Top Field First
Bits/(Pixel*Frame) : 0.116
Stream size : 1.65 GiB (98%)
Default : No
Forced : No
Color range : Limited
Color primaries : BT.709
Transfer characteristics : BT.709
Matrix coefficients : BT.709

Audio
ID : 2
Format : MPEG Audio
Format version : Version 1
Format profile : Layer 2
Format settings : Joint stereo
Mode : Joint stereo
Codec ID : A_MPEG/L2
Codec ID/Hint : MP2
Duration : 39 min 21 s
Bit rate mode : Constant
Bit rate : 128 kb/s
Channel(s) : 2 channels
Sampling rate : 48.0 kHz
Frame rate : 41.667 FPS (1152 SPF)
Compression mode : Lossy
Stream size : 36.0 MiB (2%)
Language : English
Default : No
Forced : No

Text
ID : 3
Format : UTF-8
Codec ID : S_TEXT/UTF8
Codec ID/Info : UTF-8 Plain Text
Duration : 38 min 24 s
Bit rate : 64 b/s
Count of elements : 505
Stream size : 18.3 KiB (0%)
Language : English
Default : No
Forced : No





Absentia S02E03


Absentia S02E03


Absentia S02E03


Absentia S02E03


Absentia S02E03

All episodes