Featured TV Shows


Absentia S02E03

Posted By: Tavaz
720p (HD) / HDTV IMDb
Absentia S02E03

Absentia S02E03
HDTV | MKV | 1280x720 | English | H264 @ 1799 kbps | AC-3 @ 192 kbps | 40 min 22 s | 576 MiB
Genre: Kryminał, Dramat, Tajemnica


Fabuła serialu skupia się na historii agentki FBI, która znika bez śladu w trakcie pościgu za przerażającym seryjnym mordercą z Bostonu. Wkrótce kobieta zostaje uznana za martwą. Jednak po sześciu latach zostaje odnaleziona w lesie, lecz nie pamięta, jak się tam dostała i co się wydarzyło. Po powrocie do domu dowiaduje się o powtórnym małżeństwie swojego męża oraz o tym, że została zamieszana w serię morderstw.

a-ab-0203-720-sp.mkv (15.6 MB)
a4o-ab-0203-720.mkv (575.7 MB)



General
Unique ID : 37512645149905621148800918277569074956 (0x1C38AC335CEF4B5BCEEE2FCC558F570C)
Complete name : ./a4o-ab-0203-720.mkv
Format : Matroska
Format version : Version 2
File size : 576 MiB
Duration : 40 min 22 s
Overall bit rate : 1 994 kb/s
Encoded date : UTC 2019-04-22 00:57:59
Writing application : mkvmerge v32.0.0 ('Astral Progressions') 64-bit
Writing library : libebml v1.3.7 + libmatroska v1.5.0

Video
ID : 1
Format : AVC
Format/Info : Advanced Video Codec
Format profile : High@L4.1
Format settings : CABAC / 5 Ref Frames
Format settings, CABAC : Yes
Format settings, RefFrames : 5 frames
Codec ID : V_MPEG4/ISO/AVC
Duration : 40 min 22 s
Bit rate : 1 800 kb/s
Width : 1 280 pixels
Height : 720 pixels
Display aspect ratio : 16:9
Frame rate mode : Constant
Frame rate : 25.000 FPS
Color space : YUV
Chroma subsampling : 4:2:0
Bit depth : 8 bits
Scan type : Progressive
Bits/(Pixel*Frame) : 0.078
Stream size : 520 MiB (90%)
Writing library : x264 core 157 r2969 d4099dd
Encoding settings : cabac=1 / ref=5 / deblock=1:0:0 / analyse=0x3:0x113 / me=umh / subme=8 / psy=1 / psy_rd=1.00:0.00 / mixed_ref=1 / me_range=16 / chroma_me=1 / trellis=2 / 8x8dct=1 / cqm=0 / deadzone=21,11 / fast_pskip=1 / chroma_qp_offset=-2 / threads=12 / lookahead_threads=2 / sliced_threads=0 / nr=0 / decimate=1 / interlaced=0 / bluray_compat=0 / constrained_intra=0 / bframes=3 / b_pyramid=2 / b_adapt=1 / b_bias=0 / direct=1 / weightb=1 / open_gop=0 / weightp=2 / keyint=250 / keyint_min=25 / scenecut=40 / intra_refresh=0 / rc_lookahead=40 / rc=crf / mbtree=1 / crf=18.0 / qcomp=0.60 / qpmin=0 / qpmax=69 / qpstep=4 / ip_ratio=1.40 / aq=1:1.00
Default : Yes
Forced : No
Color range : Limited
Matrix coefficients : BT.709

Audio
ID : 2
Format : AC-3
Format/Info : Audio Coding 3
Format settings, Endianness : Big
Codec ID : A_AC3
Duration : 40 min 22 s
Bit rate mode : Constant
Bit rate : 192 kb/s
Channel(s) : 2 channels
Channel positions : Front: L R
Sampling rate : 48.0 kHz
Frame rate : 31.250 FPS (1536 SPF)
Bit depth : 16 bits
Compression mode : Lossy
Stream size : 55.4 MiB (10%)
Service kind : Complete Main
Default : Yes
Forced : No





Absentia S02E03


Absentia S02E03


Absentia S02E03


Absentia S02E03


Absentia S02E03

All episodes