Featured TV Shows


Absentia S02E04

Posted By: Tavaz
720p (HD) / HDTV IMDb
Absentia S02E04

Absentia S02E04
HDTV | MKV | 1280x720 | English | H264 @ 2351 kbps | AC-3 @ 192 kbps | 37 min 54 s | 690 MiB
Genre: Kryminał, Dramat, Tajemnica


Fabuła serialu skupia się na historii agentki FBI, która znika bez śladu w trakcie pościgu za przerażającym seryjnym mordercą z Bostonu. Wkrótce kobieta zostaje uznana za martwą. Jednak po sześciu latach zostaje odnaleziona w lesie, lecz nie pamięta, jak się tam dostała i co się wydarzyło. Po powrocie do domu dowiaduje się o powtórnym małżeństwie swojego męża oraz o tym, że została zamieszana w serię morderstw.

a-ab-0204-720-sp.1.mkv (30.3 MB)
a4o-ab-0204-720.mkv (690.0 MB)
a-ab-0204-720-sp.mkv (30.3 MB)



General
Unique ID : 8697278999601513675975794565522044121 (0x68B08F62742F6BD011D67DA0FFEB4D9)
Complete name : ./a4o-ab-0204-720.mkv
Format : Matroska
Format version : Version 2
File size : 690 MiB
Duration : 37 min 54 s
Overall bit rate : 2 545 kb/s
Encoded date : UTC 2019-04-28 14:56:10
Writing application : mkvmerge v32.0.0 ('Astral Progressions') 64-bit
Writing library : libebml v1.3.7 + libmatroska v1.5.0

Video
ID : 1
Format : AVC
Format/Info : Advanced Video Codec
Format profile : High@L4.1
Format settings : CABAC / 5 Ref Frames
Format settings, CABAC : Yes
Format settings, RefFrames : 5 frames
Codec ID : V_MPEG4/ISO/AVC
Duration : 37 min 54 s
Bit rate : 2 352 kb/s
Width : 1 280 pixels
Height : 720 pixels
Display aspect ratio : 16:9
Frame rate mode : Constant
Frame rate : 25.000 FPS
Color space : YUV
Chroma subsampling : 4:2:0
Bit depth : 8 bits
Scan type : Progressive
Bits/(Pixel*Frame) : 0.102
Stream size : 637 MiB (92%)
Writing library : x264 core 157 r2969 d4099dd
Encoding settings : cabac=1 / ref=5 / deblock=1:0:0 / analyse=0x3:0x113 / me=umh / subme=8 / psy=1 / psy_rd=1.00:0.00 / mixed_ref=1 / me_range=16 / chroma_me=1 / trellis=2 / 8x8dct=1 / cqm=0 / deadzone=21,11 / fast_pskip=1 / chroma_qp_offset=-2 / threads=12 / lookahead_threads=2 / sliced_threads=0 / nr=0 / decimate=1 / interlaced=0 / bluray_compat=0 / constrained_intra=0 / bframes=3 / b_pyramid=2 / b_adapt=1 / b_bias=0 / direct=1 / weightb=1 / open_gop=0 / weightp=2 / keyint=250 / keyint_min=25 / scenecut=40 / intra_refresh=0 / rc_lookahead=40 / rc=crf / mbtree=1 / crf=18.0 / qcomp=0.60 / qpmin=0 / qpmax=69 / qpstep=4 / ip_ratio=1.40 / aq=1:1.00
Default : Yes
Forced : No
Color range : Limited
Matrix coefficients : BT.709

Audio
ID : 2
Format : AC-3
Format/Info : Audio Coding 3
Format settings, Endianness : Big
Codec ID : A_AC3
Duration : 37 min 54 s
Bit rate mode : Constant
Bit rate : 192 kb/s
Channel(s) : 2 channels
Channel positions : Front: L R
Sampling rate : 48.0 kHz
Frame rate : 31.250 FPS (1536 SPF)
Bit depth : 16 bits
Compression mode : Lossy
Stream size : 52.0 MiB (8%)
Service kind : Complete Main
Default : Yes
Forced : No





Absentia S02E04


Absentia S02E04


Absentia S02E04


Absentia S02E04


Absentia S02E04

All episodes