Featured TV Shows


Absentia S02E05

Posted By: Tavaz
1080p (FullHD) / HDTV IMDb
Absentia S02E05

Absentia S02E05
HDTV | MKV | 1920x1080 | English | H264 @ 5992 kbps | MPEG Audio @ 128 kbps | 37 min 42 s | 1.61 GiB
Subtitles: English
Genre: Crime, Drama, Mystery


A missing FBI agent reappears six years after being declared dead.

Absentia.S02E05.1080p.HDTV.h264-SFM.mkv (1.6 GB)



General
Unique ID : 106148489239942817693018234752045903859 (0x4FDB7494F4625DF26343AF57F2976FF3)
Complete name : ./Absentia.S02E05.1080p.HDTV.h264-SFM.mkv
Format : Matroska
Format version : Version 4 / Version 2
File size : 1.61 GiB
Duration : 37 min 42 s
Overall bit rate : 6 123 kb/s
Encoded date : UTC 2019-04-23 22:29:10
Writing application : mkvmerge v33.1.0 ('Primrose') 64-bit
Writing library : libebml v1.3.7 + libmatroska v1.5.0

Video
ID : 1
Format : AVC
Format/Info : Advanced Video Codec
Format profile : High@L4
Format settings : CABAC / 4 Ref Frames
Format settings, CABAC : Yes
Format settings, RefFrames : 4 frames
Codec ID : V_MPEG4/ISO/AVC
Duration : 37 min 42 s
Bit rate : 5 992 kb/s
Width : 1 920 pixels
Height : 1 080 pixels
Display aspect ratio : 16:9
Frame rate mode : Constant
Frame rate : 25.000 FPS
Standard : Component
Color space : YUV
Chroma subsampling : 4:2:0
Bit depth : 8 bits
Scan type : MBAFF
Bits/(Pixel*Frame) : 0.116
Stream size : 1.58 GiB (98%)
Language : English
Default : No
Forced : No
Color range : Limited
Color primaries : BT.709
Transfer characteristics : BT.709
Matrix coefficients : BT.709

Audio
ID : 2
Format : MPEG Audio
Format version : Version 1
Format profile : Layer 2
Format settings : Joint stereo
Mode : Joint stereo
Codec ID : A_MPEG/L2
Codec ID/Hint : MP2
Duration : 37 min 42 s
Bit rate mode : Constant
Bit rate : 128 kb/s
Channel(s) : 2 channels
Sampling rate : 48.0 kHz
Frame rate : 41.667 FPS (1152 SPF)
Compression mode : Lossy
Stream size : 34.5 MiB (2%)
Language : English
Default : Yes
Forced : No

Text
ID : 3
Format : UTF-8
Codec ID : S_TEXT/UTF8
Codec ID/Info : UTF-8 Plain Text
Duration : 37 min 35 s
Bit rate : 64 b/s
Count of elements : 497
Stream size : 17.8 KiB (0%)
Language : English
Default : No
Forced : No





Absentia S02E05


Absentia S02E05


Absentia S02E05


Absentia S02E05


Absentia S02E05

All episodes