Featured TV Shows


Absentia S02E06

Posted By: Tavaz
720p (HD) / HDTV IMDb
Absentia S02E06

Absentia S02E06
HDTV | MKV | 1280x720 | English | H264 @ 2536 kbps | MPEG Audio @ 128 kbps | 43 min 28 s | 829 MiB
Subtitles: English
Genre: Crime, Drama, Mystery


A missing FBI agent reappears six years after being declared dead.

Absentia.S02E06.720p.HDTV.x264-SFM.mkv (829.2 MB)



General
Unique ID : 260352458983186495898677016925165586175 (0xC3DE0F47851737EAC656D0B5699406FF)
Complete name : ./Absentia.S02E06.720p.HDTV.x264-SFM.mkv
Format : Matroska
Format version : Version 4 / Version 2
File size : 829 MiB
Duration : 43 min 28 s
Overall bit rate : 2 667 kb/s
Encoded date : UTC 2019-05-08 00:24:16
Writing application : mkvmerge v33.1.0 ('Primrose') 64-bit
Writing library : libebml v1.3.7 + libmatroska v1.5.0

Video
ID : 1
Format : AVC
Format/Info : Advanced Video Codec
Format profile : High@L4.1
Format settings : CABAC / 5 Ref Frames
Format settings, CABAC : Yes
Format settings, RefFrames : 5 frames
Codec ID : V_MPEG4/ISO/AVC
Duration : 43 min 28 s
Bit rate : 2 537 kb/s
Width : 1 280 pixels
Height : 720 pixels
Display aspect ratio : 16:9
Frame rate mode : Constant
Frame rate : 25.000 FPS
Color space : YUV
Chroma subsampling : 4:2:0
Bit depth : 8 bits
Scan type : Progressive
Bits/(Pixel*Frame) : 0.110
Stream size : 789 MiB (95%)
Writing library : x264 core 157 r2969 d4099dd
Encoding settings : cabac=1 / ref=5 / deblock=1:-1:-1 / analyse=0x3:0x113 / me=umh / subme=8 / psy=1 / psy_rd=1.00:0.15 / mixed_ref=1 / me_range=16 / chroma_me=1 / trellis=1 / 8x8dct=1 / cqm=0 / deadzone=21,11 / fast_pskip=1 / chroma_qp_offset=-3 / threads=6 / lookahead_threads=1 / sliced_threads=0 / nr=0 / decimate=1 / interlaced=0 / bluray_compat=0 / constrained_intra=0 / bframes=3 / b_pyramid=2 / b_adapt=2 / b_bias=0 / direct=3 / weightb=1 / open_gop=0 / weightp=2 / keyint=250 / keyint_min=25 / scenecut=40 / intra_refresh=0 / rc_lookahead=50 / rc=crf / mbtree=1 / crf=18.0 / qcomp=0.60 / qpmin=0 / qpmax=69 / qpstep=4 / vbv_maxrate=62500 / vbv_bufsize=78125 / crf_max=0.0 / nal_hrd=none / filler=0 / ip_ratio=1.40 / aq=1:1.00
Default : Yes
Forced : No

Audio
ID : 2
Format : MPEG Audio
Format version : Version 1
Format profile : Layer 2
Format settings : Joint stereo
Mode : Joint stereo
Codec ID : A_MPEG/L2
Codec ID/Hint : MP2
Duration : 43 min 28 s
Bit rate mode : Constant
Bit rate : 128 kb/s
Channel(s) : 2 channels
Sampling rate : 48.0 kHz
Frame rate : 41.667 FPS (1152 SPF)
Compression mode : Lossy
Stream size : 39.8 MiB (5%)
Language : English
Default : Yes
Forced : No

Text
ID : 3
Format : UTF-8
Codec ID : S_TEXT/UTF8
Codec ID/Info : UTF-8 Plain Text
Duration : 43 min 23 s
Bit rate : 56 b/s
Count of elements : 508
Stream size : 17.9 KiB (0%)
Language : English
Default : No
Forced : No





Absentia S02E06


Absentia S02E06


Absentia S02E06


Absentia S02E06


Absentia S02E06

All episodes