Featured TV Shows


Absentia S02E08

Posted By: Tavaz
1080p (FullHD) / WEB-DL IMDb
Absentia S02E08

Absentia S02E08
WEB-DL | MKV | 1920x1080 | English | H264 @ 4833 kbps | AC-3 @ 384 kbps | 43 min 45 s | 1.60 GiB
Genre: Crime, Drama, Mystery


A missing FBI agent reappears six years after being declared dead.

b5c04e2f5b394c14b377a439edfb6c3d.mkv (1.6 GB)



General
Unique ID : 329437164068520625037603735981552871441 (0xF7D74A375E5B2B5EBBD71F488CA8A811)
Complete name : ./b5c04e2f5b394c14b377a439edfb6c3d.mkv
Format : Matroska
Format version : Version 4 / Version 2
File size : 1.60 GiB
Duration : 43 min 45 s
Overall bit rate mode : Variable
Overall bit rate : 5 219 kb/s
Encoded date : UTC 2019-05-15 11:59:23
Writing application : mkvmerge v30.1.0 ('Forever And More') 64-bit
Writing library : libebml v1.3.6 + libmatroska v1.4.9

Video
ID : 1
Format : AVC
Format/Info : Advanced Video Codec
Format profile : High@L4.1
Format settings : CABAC / 2 Ref Frames
Format settings, CABAC : Yes
Format settings, RefFrames : 2 frames
Codec ID : V_MPEG4/ISO/AVC
Duration : 43 min 45 s
Bit rate mode : Variable
Bit rate : 4 833 kb/s
Maximum bit rate : 7 200 kb/s
Width : 1 920 pixels
Height : 1 080 pixels
Display aspect ratio : 16:9
Frame rate mode : Constant
Frame rate : 25.000 FPS
Color space : YUV
Chroma subsampling : 4:2:0
Bit depth : 8 bits
Scan type : Progressive
Bits/(Pixel*Frame) : 0.093
Stream size : 1.48 GiB (93%)
Default : Yes
Forced : No

Audio
ID : 2
Format : AC-3
Format/Info : Audio Coding 3
Format settings, Endianness : Big
Codec ID : A_AC3
Duration : 43 min 45 s
Bit rate mode : Constant
Bit rate : 384 kb/s
Channel(s) : 6 channels
Channel positions : Front: L C R, Side: L R, LFE
Sampling rate : 48.0 kHz
Frame rate : 31.250 FPS (1536 SPF)
Bit depth : 16 bits
Compression mode : Lossy
Stream size : 120 MiB (7%)
Service kind : Complete Main
Default : Yes
Forced : No





Absentia S02E08


Absentia S02E08


Absentia S02E08


Absentia S02E08


Absentia S02E08

All episodes