Featured TV Shows


Absentia S02E08

Posted By: Tavaz
720p (HD) / WEBRip IMDb
Absentia S02E08

Absentia S02E08
WEBRip | MKV | 1280x720 | English | H264 @ 2353 kbps | AC-3 @ 384 kbps | 43 min 45 s | 874 MiB
Subtitles: Swedish, Norwegian, Finnish, Danish
Genre: Crime, Drama, Mystery


A missing FBI agent reappears six years after being declared dead.

Absentia.S02E08.720p.WEB.H264-EDHD.mkv (874.1 MB)



General
Unique ID : 146261003131774462567588354293411064621 (0x6E08D83543D97FC3A3690BCC9613AB2D)
Complete name : ./Absentia.S02E08.720p.WEB.H264-EDHD.mkv
Format : Matroska
Format version : Version 4 / Version 2
File size : 874 MiB
Duration : 43 min 45 s
Overall bit rate mode : Variable
Overall bit rate : 2 793 kb/s
Writing application : mkvmerge v30.1.0 ('Forever And More') 64-bit
Writing library : libebml v1.3.6 + libmatroska v1.4.9

Video
ID : 1
Format : AVC
Format/Info : Advanced Video Codec
Format profile : Main@L3.1
Format settings : CABAC / 2 Ref Frames
Format settings, CABAC : Yes
Format settings, RefFrames : 2 frames
Codec ID : V_MPEG4/ISO/AVC
Duration : 43 min 45 s
Bit rate mode : Variable
Bit rate : 2 353 kb/s
Maximum bit rate : 3 600 kb/s
Width : 1 280 pixels
Height : 720 pixels
Display aspect ratio : 16:9
Frame rate mode : Constant
Frame rate : 25.000 FPS
Color space : YUV
Chroma subsampling : 4:2:0
Bit depth : 8 bits
Scan type : Progressive
Bits/(Pixel*Frame) : 0.102
Stream size : 737 MiB (84%)
Default : Yes
Forced : No

Audio
ID : 2
Format : AC-3
Format/Info : Audio Coding 3
Format settings, Endianness : Big
Codec ID : A_AC3
Duration : 43 min 45 s
Bit rate mode : Constant
Bit rate : 384 kb/s
Channel(s) : 6 channels
Channel positions : Front: L C R, Side: L R, LFE
Sampling rate : 48.0 kHz
Frame rate : 31.250 FPS (1536 SPF)
Bit depth : 16 bits
Compression mode : Lossy
Stream size : 120 MiB (14%)
Service kind : Complete Main
Default : Yes
Forced : No

Text #1
ID : 3
Format : UTF-8
Codec ID : S_TEXT/UTF8
Codec ID/Info : UTF-8 Plain Text
Title : fi
Language : Finnish
Default : No
Forced : No

Text #2
ID : 4
Format : UTF-8
Codec ID : S_TEXT/UTF8
Codec ID/Info : UTF-8 Plain Text
Title : no
Language : Norwegian
Default : No
Forced : No

Text #3
ID : 5
Format : UTF-8
Codec ID : S_TEXT/UTF8
Codec ID/Info : UTF-8 Plain Text
Title : sv
Language : Swedish
Default : No
Forced : No

Text #4
ID : 6
Format : UTF-8
Codec ID : S_TEXT/UTF8
Codec ID/Info : UTF-8 Plain Text
Title : da
Language : Danish
Default : No
Forced : No





Absentia S02E08


Absentia S02E08


Absentia S02E08


Absentia S02E08


Absentia S02E08

All episodes