Featured TV Shows


Absentia S02E09

Posted By: Tavaz
720p (HD) / WEBRip IMDb
Absentia S02E09

Absentia S02E09
WEBRip | MKV | 1280x720 | English | H264 @ 2374 kbps | AC-3 @ 384 kbps | 41 min 35 s | 837 MiB
Subtitles: Swedish, Danish, Finnish, Norwegian
Genre: Crime, Drama, Mystery


A missing FBI agent reappears six years after being declared dead.

3d5c1136ea3c4ba7a93c7fa3bf6a69e6.mkv (837.2 MB)



General
Unique ID : 56767376641389668198298458185896423644 (0x2AB4FFC1FD5523FD441991827481F0DC)
Complete name : ./3d5c1136ea3c4ba7a93c7fa3bf6a69e6.mkv
Format : Matroska
Format version : Version 4 / Version 2
File size : 837 MiB
Duration : 41 min 35 s
Overall bit rate mode : Variable
Overall bit rate : 2 814 kb/s
Writing application : mkvmerge v30.1.0 ('Forever And More') 64-bit
Writing library : libebml v1.3.6 + libmatroska v1.4.9

Video
ID : 1
Format : AVC
Format/Info : Advanced Video Codec
Format profile : Main@L3.1
Format settings : CABAC / 2 Ref Frames
Format settings, CABAC : Yes
Format settings, RefFrames : 2 frames
Codec ID : V_MPEG4/ISO/AVC
Duration : 41 min 35 s
Bit rate mode : Variable
Bit rate : 2 374 kb/s
Maximum bit rate : 3 600 kb/s
Width : 1 280 pixels
Height : 720 pixels
Display aspect ratio : 16:9
Frame rate mode : Constant
Frame rate : 25.000 FPS
Color space : YUV
Chroma subsampling : 4:2:0
Bit depth : 8 bits
Scan type : Progressive
Bits/(Pixel*Frame) : 0.103
Stream size : 706 MiB (84%)
Language : English
Default : Yes
Forced : No

Audio
ID : 2
Format : AC-3
Format/Info : Audio Coding 3
Format settings, Endianness : Big
Codec ID : A_AC3
Duration : 41 min 35 s
Bit rate mode : Constant
Bit rate : 384 kb/s
Channel(s) : 6 channels
Channel positions : Front: L C R, Side: L R, LFE
Sampling rate : 48.0 kHz
Frame rate : 31.250 FPS (1536 SPF)
Bit depth : 16 bits
Compression mode : Lossy
Stream size : 114 MiB (14%)
Language : English
Service kind : Complete Main
Default : Yes
Forced : No

Text #1
ID : 3
Format : UTF-8
Codec ID : S_TEXT/UTF8
Codec ID/Info : UTF-8 Plain Text
Title : Danish
Language : Danish
Default : No
Forced : No

Text #2
ID : 4
Format : UTF-8
Codec ID : S_TEXT/UTF8
Codec ID/Info : UTF-8 Plain Text
Title : Finnish
Language : Finnish
Default : No
Forced : No

Text #3
ID : 5
Format : UTF-8
Codec ID : S_TEXT/UTF8
Codec ID/Info : UTF-8 Plain Text
Title : Norwegian
Language : Norwegian
Default : No
Forced : No

Text #4
ID : 6
Format : UTF-8
Codec ID : S_TEXT/UTF8
Codec ID/Info : UTF-8 Plain Text
Title : Swedish
Language : Swedish
Default : No
Forced : No





Absentia S02E09


Absentia S02E09


Absentia S02E09


Absentia S02E09


Absentia S02E09

All episodes