Featured TV Shows


Absentia S02E10

Posted By: Tavaz
1080p (FullHD) / WEB-DL IMDb
Absentia S02E10

Absentia S02E10
WEB-DL | MKV | 1920x1080 | English | H264 @ 4796 kbps | AC-3 @ 384 kbps | 42 min 22 s | 1.53 GiB
Genre: Crime, Drama, Mystery


A missing FBI agent reappears six years after being declared dead.

fe5cc34e687d418c958a57028d3a2e29.mkv (1.5 GB)



General
Unique ID : 69551693885785089556242258686548708479 (0x34532B432CA06149D1897925D74D0C7F)
Complete name : ./fe5cc34e687d418c958a57028d3a2e29.mkv
Format : Matroska
Format version : Version 4 / Version 2
File size : 1.53 GiB
Duration : 42 min 22 s
Overall bit rate mode : Variable
Overall bit rate : 5 182 kb/s
Encoded date : UTC 2019-05-28 22:24:03
Writing application : mkvmerge v30.1.0 ('Forever And More') 64-bit
Writing library : libebml v1.3.6 + libmatroska v1.4.9

Video
ID : 1
Format : AVC
Format/Info : Advanced Video Codec
Format profile : High@L4.1
Format settings : CABAC / 2 Ref Frames
Format settings, CABAC : Yes
Format settings, RefFrames : 2 frames
Codec ID : V_MPEG4/ISO/AVC
Duration : 42 min 22 s
Bit rate mode : Variable
Bit rate : 4 796 kb/s
Maximum bit rate : 7 200 kb/s
Width : 1 920 pixels
Height : 1 080 pixels
Display aspect ratio : 16:9
Frame rate mode : Constant
Frame rate : 25.000 FPS
Color space : YUV
Chroma subsampling : 4:2:0
Bit depth : 8 bits
Scan type : Progressive
Bits/(Pixel*Frame) : 0.093
Stream size : 1.42 GiB (93%)
Default : Yes
Forced : No

Audio
ID : 2
Format : AC-3
Format/Info : Audio Coding 3
Format settings, Endianness : Big
Codec ID : A_AC3
Duration : 42 min 22 s
Bit rate mode : Constant
Bit rate : 384 kb/s
Channel(s) : 6 channels
Channel positions : Front: L C R, Side: L R, LFE
Sampling rate : 48.0 kHz
Frame rate : 31.250 FPS (1536 SPF)
Bit depth : 16 bits
Compression mode : Lossy
Stream size : 116 MiB (7%)
Service kind : Complete Main
Default : Yes
Forced : No





Absentia S02E10


Absentia S02E10


Absentia S02E10


Absentia S02E10


Absentia S02E10

All episodes