Featured TV Shows


Absentia S02E10

Posted By: Tavaz
1080p (FullHD) / WEBRip IMDb
Absentia S02E10

Absentia S02E10
WEBRip | MKV | 1920x1080 | Italian / English | H264 @ 7461 kbps | E-AC-3 @ 640 kbps | 43 min 1 s | 2.63 GiB
Subtitles: English, Italian
Genre: Crime, Drama, Mystery


A missing FBI agent reappears six years after being declared dead.

Absentia.S02E10.iTALiAN.MULTi.1080p.WEB.H264-HWD.mkv (2.6 GB)



General
Unique ID : 280286164935862532856438526439215835309 (0xD2DD26DCACF9B77E2F127CB7EAF3A8AD)
Complete name : ./Absentia.S02E10.iTALiAN.MULTi.1080p.WEB.H264-HWD.mkv
Format : Matroska
Format version : Version 4 / Version 2
File size : 2.63 GiB
Duration : 43 min 1 s
Overall bit rate : 8 744 kb/s
Encoded date : UTC 2019-11-22 23:13:26
Writing application : mkvmerge v28.2.0 ('The Awakening') 64-bit
Writing library : libebml v1.3.6 + libmatroska v1.4.9

Video
ID : 1
Format : AVC
Format/Info : Advanced Video Codec
Format profile : High@L4
Format settings : CABAC / 4 Ref Frames
Format settings, CABAC : Yes
Format settings, RefFrames : 4 frames
Codec ID : V_MPEG4/ISO/AVC
Duration : 43 min 1 s
Bit rate mode : Constant
Bit rate : 7 461 kb/s
Nominal bit rate : 10 000 kb/s
Width : 1 920 pixels
Height : 1 080 pixels
Display aspect ratio : 16:9
Frame rate mode : Constant
Frame rate : 23.976 (24000/1001) FPS
Color space : YUV
Chroma subsampling : 4:2:0
Bit depth : 8 bits
Scan type : Progressive
Bits/(Pixel*Frame) : 0.150
Stream size : 2.24 GiB (85%)
Default : Yes
Forced : No
Color range : Limited
Color primaries : BT.709
Transfer characteristics : BT.709
Matrix coefficients : BT.709

Audio #1
ID : 2
Format : E-AC-3
Format/Info : Enhanced Audio Coding 3
Format settings, Endianness : Big
Codec ID : A_EAC3
Duration : 43 min 1 s
Bit rate mode : Constant
Bit rate : 640 kb/s
Channel(s) : 6 channels
Channel positions : Front: L C R, Side: L R, LFE
Sampling rate : 48.0 kHz
Frame rate : 187.500 FPS (256 SPF)
Compression mode : Lossy
Stream size : 197 MiB (7%)
Title : Italian - HQ
Language : Italian
Service kind : Complete Main
Default : Yes
Forced : No

Audio #2
ID : 3
Format : E-AC-3
Format/Info : Enhanced Audio Coding 3
Format settings, Endianness : Big
Codec ID : A_EAC3
Duration : 43 min 1 s
Bit rate mode : Constant
Bit rate : 640 kb/s
Channel(s) : 6 channels
Channel positions : Front: L C R, Side: L R, LFE
Sampling rate : 48.0 kHz
Frame rate : 187.500 FPS (256 SPF)
Compression mode : Lossy
Stream size : 197 MiB (7%)
Title : English - HQ
Language : English
Service kind : Complete Main
Default : No
Forced : No

Text #1
ID : 4
Format : UTF-8
Codec ID : S_TEXT/UTF8
Codec ID/Info : UTF-8 Plain Text
Duration : 23 min 53 s
Bit rate : 0 b/s
Count of elements : 3
Stream size : 101 Bytes (0%)
Title : Italian Forced
Language : Italian
Default : Yes
Forced : Yes

Text #2
ID : 5
Format : UTF-8
Codec ID : S_TEXT/UTF8
Codec ID/Info : UTF-8 Plain Text
Duration : 42 min 50 s
Bit rate : 53 b/s
Count of elements : 549
Stream size : 16.8 KiB (0%)
Title : Italian
Language : Italian
Default : No
Forced : No

Text #3
ID : 6
Format : UTF-8
Codec ID : S_TEXT/UTF8
Codec ID/Info : UTF-8 Plain Text
Duration : 41 min 46 s
Bit rate : 58 b/s
Count of elements : 625
Stream size : 17.8 KiB (0%)
Title : English SDH
Language : English
Default : No
Forced : No

Menu
00:00:00.000 : en:1. Amazon Original
00:00:05.000 : en:2. An ordered killing
00:01:59.000 : en:3. Title Sequence
00:02:11.000 : en:4. Agent Crown can't protect Emily
00:04:01.000 : en:5. Letting a good thing go
00:05:42.000 : en:6. It's going to be a long night
00:08:45.000 : en:7. Hacking in to remote servers
00:11:14.000 : en:8. Nick breaks the news to Alice
00:15:19.000 : en:9. Bad news for Agent Crown
00:17:06.000 : en:10. Alice suggests going away for the weekend
00:17:57.000 : en:11. Blowing off steam
00:21:48.000 : en:12. There's a new leader in the office
00:23:05.000 : en:13. Emily finds the missing link
00:30:16.000 : en:14. On the hunt for Alice
00:35:05.000 : en:15. Emily confronts Alice
00:41:46.000 : en:16. End Credits





Absentia S02E10


Absentia S02E10


Absentia S02E10


Absentia S02E10


Absentia S02E10

All episodes