Active Shooter: America Under Fire S01E02

Posted By: Tavaz
720p (HD) / WEB-DL IMDb
Active Shooter: America Under Fire S01E02

Active Shooter: America Under Fire S01E02
WEB-DL | MKV | 1280x720 | English | H264 @ 3043 kbps | E-AC-3 @ 640 kbps | 53 min 9 s | 1.37 GiB
Subtitles: English
Genre: Documentary

An in-depth exploration of mass shootings and their devastating consequences. From the first-hand perspective of survivors, families of the victims, witnesses and heroic first responders, the series goes beyond the sensationalistic coverage of these nightmarish moments to offer a comprehensive report on these tragic events.

762410b580804aa197e8a7f923cd03e1.mkv (1.4 GB)



General
Unique ID : 213231115649270235261459236101115397804 (0xA06AD1AE9910D6B21338EE32BED8C6AC)
Complete name : ./762410b580804aa197e8a7f923cd03e1.mkv
Format : Matroska
Format version : Version 4 / Version 2
File size : 1.37 GiB
Duration : 53 min 9 s
Overall bit rate mode : Variable
Overall bit rate : 3 686 kb/s
Encoded date : UTC 2018-05-14 01:34:36
Writing application : mkvmerge v23.0.0 ('The Bride Said No') 64-bit
Writing library : libebml v1.3.6 + libmatroska v1.4.9

Video
ID : 1
Format : AVC
Format/Info : Advanced Video Codec
Format profile : High@L3.1
Format settings : CABAC / 5 Ref Frames
Format settings, CABAC : Yes
Format settings, RefFrames : 5 frames
Codec ID : V_MPEG4/ISO/AVC
Duration : 53 min 9 s
Bit rate mode : Variable
Bit rate : 3 044 kb/s
Maximum bit rate : 4 500 kb/s
Width : 1 280 pixels
Height : 720 pixels
Display aspect ratio : 16:9
Frame rate mode : Constant
Frame rate : 23.976 (24000/1001) FPS
Color space : YUV
Chroma subsampling : 4:2:0
Bit depth : 8 bits
Scan type : Progressive
Bits/(Pixel*Frame) : 0.138
Stream size : 1.13 GiB (83%)
Default : Yes
Forced : No
Color range : Limited
Color primaries : BT.709
Transfer characteristics : BT.709
Matrix coefficients : BT.709

Audio
ID : 2
Format : E-AC-3
Format/Info : Enhanced Audio Coding 3
Format settings, Endianness : Big
Codec ID : A_EAC3
Duration : 53 min 8 s
Bit rate mode : Constant
Bit rate : 640 kb/s
Channel(s) : 6 channels
Channel positions : Front: L C R, Side: L R, LFE
Sampling rate : 48.0 kHz
Frame rate : 187.500 FPS (256 SPF)
Compression mode : Lossy
Stream size : 243 MiB (17%)
Language : English
Service kind : Complete Main
Default : Yes
Forced : No

Text #1
ID : 3
Format : UTF-8
Codec ID : S_TEXT/UTF8
Codec ID/Info : UTF-8 Plain Text
Duration : 52 min 28 s
Bit rate : 100 b/s
Count of elements : 1088
Stream size : 38.8 KiB (0%)
Language : English
Default : No
Forced : No

Text #2
ID : 4
Format : UTF-8
Codec ID : S_TEXT/UTF8
Codec ID/Info : UTF-8 Plain Text
Duration : 52 min 40 s
Bit rate : 103 b/s
Count of elements : 1123
Stream size : 40.0 KiB (0%)
Title : SDH
Language : English
Default : No
Forced : No





Active Shooter: America Under Fire S01E02


Active Shooter: America Under Fire S01E02


Active Shooter: America Under Fire S01E02


Active Shooter: America Under Fire S01E02


Active Shooter: America Under Fire S01E02

All episodes