Active Shooter: America Under Fire S01E03

Posted By: Tavaz
1080p (FullHD) / WEB-DL IMDb
Active Shooter: America Under Fire S01E03

Active Shooter: America Under Fire S01E03
WEB-DL | MKV | 1920x1080 | English | H264 @ 9125 kbps | E-AC-3 @ 640 kbps | 53 min 26 s | 3.65 GiB
Subtitles: English
Genre: Documentary

An in-depth exploration of mass shootings and their devastating consequences. From the first-hand perspective of survivors, families of the victims, witnesses and heroic first responders, the series goes beyond the sensationalistic coverage of these nightmarish moments to offer a comprehensive report on these tragic events.

e77e5e83b3434cd6abe4cd51d338fec3.mkv (3.6 GB)



General
Unique ID : 249238700876542575608361790323741477987 (0xBB81A0B3088352C8580C266646A8CC63)
Complete name : ./e77e5e83b3434cd6abe4cd51d338fec3.mkv
Format : Matroska
Format version : Version 4 / Version 2
File size : 3.65 GiB
Duration : 53 min 26 s
Overall bit rate mode : Variable
Overall bit rate : 9 768 kb/s
Encoded date : UTC 2018-05-13 23:58:48
Writing application : mkvmerge v23.0.0 ('The Bride Said No') 64-bit
Writing library : libebml v1.3.6 + libmatroska v1.4.9

Video
ID : 1
Format : AVC
Format/Info : Advanced Video Codec
Format profile : High@L4
Format settings : CABAC / 4 Ref Frames
Format settings, CABAC : Yes
Format settings, RefFrames : 4 frames
Codec ID : V_MPEG4/ISO/AVC
Duration : 53 min 26 s
Bit rate mode : Variable
Bit rate : 9 126 kb/s
Maximum bit rate : 15.0 Mb/s
Width : 1 920 pixels
Height : 1 080 pixels
Display aspect ratio : 16:9
Frame rate mode : Constant
Frame rate : 23.976 (24000/1001) FPS
Color space : YUV
Chroma subsampling : 4:2:0
Bit depth : 8 bits
Scan type : Progressive
Bits/(Pixel*Frame) : 0.184
Stream size : 3.41 GiB (93%)
Default : Yes
Forced : No
Color range : Limited
Color primaries : BT.709
Transfer characteristics : BT.709
Matrix coefficients : BT.709

Audio
ID : 2
Format : E-AC-3
Format/Info : Enhanced Audio Coding 3
Format settings, Endianness : Big
Codec ID : A_EAC3
Duration : 53 min 26 s
Bit rate mode : Constant
Bit rate : 640 kb/s
Channel(s) : 6 channels
Channel positions : Front: L C R, Side: L R, LFE
Sampling rate : 48.0 kHz
Frame rate : 187.500 FPS (256 SPF)
Compression mode : Lossy
Stream size : 245 MiB (7%)
Language : English
Service kind : Complete Main
Default : Yes
Forced : No

Text #1
ID : 3
Format : UTF-8
Codec ID : S_TEXT/UTF8
Codec ID/Info : UTF-8 Plain Text
Duration : 52 min 44 s
Bit rate : 86 b/s
Count of elements : 1083
Stream size : 33.3 KiB (0%)
Language : English
Default : No
Forced : No

Text #2
ID : 4
Format : UTF-8
Codec ID : S_TEXT/UTF8
Codec ID/Info : UTF-8 Plain Text
Duration : 52 min 44 s
Bit rate : 89 b/s
Count of elements : 1110
Stream size : 34.6 KiB (0%)
Title : SDH
Language : English
Default : No
Forced : No





Active Shooter: America Under Fire S01E03


Active Shooter: America Under Fire S01E03


Active Shooter: America Under Fire S01E03


Active Shooter: America Under Fire S01E03


Active Shooter: America Under Fire S01E03

All episodes