Active Shooter: America Under Fire S01E04

Posted By: Tavaz
1080p (FullHD) / WEB-DL IMDb
Active Shooter: America Under Fire S01E04

Active Shooter: America Under Fire S01E04
WEB-DL | MKV | 1920x1080 | English | H264 @ 8050 kbps | E-AC-3 @ 640 kbps | 52 min 2 s | 3.16 GiB
Subtitles: English
Genre: Documentary

An in-depth exploration of mass shootings and their devastating consequences. From the first-hand perspective of survivors, families of the victims, witnesses and heroic first responders, the series goes beyond the sensationalistic coverage of these nightmarish moments to offer a comprehensive report on these tragic events.

1a5a46570f4b44d08f15fac9ac5fd6e1.mkv (3.2 GB)



General
Unique ID : 209367889056813482137345200416456169692 (0x9D82C9E7C4E550D8671EC87E31F3D8DC)
Complete name : ./1a5a46570f4b44d08f15fac9ac5fd6e1.mkv
Format : Matroska
Format version : Version 4 / Version 2
File size : 3.16 GiB
Duration : 52 min 2 s
Overall bit rate mode : Variable
Overall bit rate : 8 693 kb/s
Encoded date : UTC 2018-05-14 00:02:18
Writing application : mkvmerge v23.0.0 ('The Bride Said No') 64-bit
Writing library : libebml v1.3.6 + libmatroska v1.4.9

Video
ID : 1
Format : AVC
Format/Info : Advanced Video Codec
Format profile : High@L4
Format settings : CABAC / 4 Ref Frames
Format settings, CABAC : Yes
Format settings, RefFrames : 4 frames
Codec ID : V_MPEG4/ISO/AVC
Duration : 52 min 2 s
Bit rate mode : Variable
Bit rate : 8 051 kb/s
Maximum bit rate : 15.0 Mb/s
Width : 1 920 pixels
Height : 1 080 pixels
Display aspect ratio : 16:9
Frame rate mode : Constant
Frame rate : 23.976 (24000/1001) FPS
Color space : YUV
Chroma subsampling : 4:2:0
Bit depth : 8 bits
Scan type : Progressive
Bits/(Pixel*Frame) : 0.162
Stream size : 2.93 GiB (93%)
Default : Yes
Forced : No
Color range : Limited
Color primaries : BT.709
Transfer characteristics : BT.709
Matrix coefficients : BT.709

Audio
ID : 2
Format : E-AC-3
Format/Info : Enhanced Audio Coding 3
Format settings, Endianness : Big
Codec ID : A_EAC3
Duration : 52 min 2 s
Bit rate mode : Constant
Bit rate : 640 kb/s
Channel(s) : 6 channels
Channel positions : Front: L C R, Side: L R, LFE
Sampling rate : 48.0 kHz
Frame rate : 187.500 FPS (256 SPF)
Compression mode : Lossy
Stream size : 238 MiB (7%)
Language : English
Service kind : Complete Main
Default : Yes
Forced : No

Text #1
ID : 3
Format : UTF-8
Codec ID : S_TEXT/UTF8
Codec ID/Info : UTF-8 Plain Text
Duration : 51 min 15 s
Bit rate : 108 b/s
Count of elements : 1137
Stream size : 40.9 KiB (0%)
Language : English
Default : No
Forced : No

Text #2
ID : 4
Format : UTF-8
Codec ID : S_TEXT/UTF8
Codec ID/Info : UTF-8 Plain Text
Duration : 51 min 15 s
Bit rate : 112 b/s
Count of elements : 1162
Stream size : 42.2 KiB (0%)
Title : SDH
Language : English
Default : No
Forced : No





Active Shooter: America Under Fire S01E04


Active Shooter: America Under Fire S01E04


Active Shooter: America Under Fire S01E04


Active Shooter: America Under Fire S01E04


Active Shooter: America Under Fire S01E04

All episodes