Please register here if you want to download anything!

If domain in your address bar is different from the list below
PLEASE LEAVE THAT SITE IMMEDIATELY
❗IT'S A DANGEROUS FAKE❗



Spicy Magazines for Men! ;-)

Featured TV Shows


Adam Ruins Everything S03E05

Posted By: Tavaz
1080p (FullHD) / WEB-DL IMDb
Adam Ruins Everything S03E05

Adam Ruins Everything S03E05
WEB-DL | MKV | 1920x1080 | English | H264 @ 8854 kbps | E-AC-3 @ 224 kbps | 24 min 33 s | 1.56 GiB
Subtitles: English
Genre: Comedy, Documentary


Host Adam Conover employs a combination of comedy, history and science to dispel widespread misconceptions about everything we take for granted.

dfd27103057f45fd843bc15cc944afe3.mkv (1.6 GB)



General
Unique ID : 117353380144781641678404606235177589621 (0x5849705B1170CB3EF9AC258198231B75)
Complete name : ./dfd27103057f45fd843bc15cc944afe3.mkv
Format : Matroska
Format version : Version 4 / Version 2
File size : 1.56 GiB
Duration : 24 min 33 s
Overall bit rate : 9 080 kb/s
Encoded date : UTC 2019-08-14 08:53:10
Writing application : mkvmerge v34.0.0 ('Sight and Seen') 64-bit
Writing library : libebml v1.3.7 + libmatroska v1.5.0

Video
ID : 3
Format : AVC
Format/Info : Advanced Video Codec
Format profile : High@L4
Format settings : CABAC / 4 Ref Frames
Format settings, CABAC : Yes
Format settings, RefFrames : 4 frames
Codec ID : V_MPEG4/ISO/AVC
Duration : 24 min 33 s
Bit rate mode : Constant
Bit rate : 8 854 kb/s
Nominal bit rate : 10 000 kb/s
Width : 1 920 pixels
Height : 1 080 pixels
Display aspect ratio : 16:9
Frame rate mode : Constant
Frame rate : 23.976 (24000/1001) FPS
Color space : YUV
Chroma subsampling : 4:2:0
Bit depth : 8 bits
Scan type : Progressive
Bits/(Pixel*Frame) : 0.178
Stream size : 1.52 GiB (98%)
Language : English
Default : Yes
Forced : No
Color range : Limited
Color primaries : BT.709
Transfer characteristics : BT.709
Matrix coefficients : BT.709

Audio
ID : 2
Format : E-AC-3
Format/Info : Enhanced Audio Coding 3
Format settings, Endianness : Big
Codec ID : A_EAC3
Duration : 24 min 33 s
Bit rate mode : Constant
Bit rate : 224 kb/s
Channel(s) : 2 channels
Channel positions : Front: L R
Sampling rate : 48.0 kHz
Frame rate : 187.500 FPS (256 SPF)
Compression mode : Lossy
Stream size : 39.3 MiB (2%)
Language : English
Service kind : Complete Main
Default : Yes
Forced : No

Text
ID : 1
Format : UTF-8
Codec ID : S_TEXT/UTF8
Codec ID/Info : UTF-8 Plain Text
Duration : 24 min 26 s
Bit rate : 118 b/s
Count of elements : 606
Stream size : 21.2 KiB (0%)
Title : English (SDH)
Language : English
Default : Yes
Forced : No





Adam Ruins Everything S03E05


Adam Ruins Everything S03E05


Adam Ruins Everything S03E05


Adam Ruins Everything S03E05


Adam Ruins Everything S03E05

All episodes