Adventure Time S10E05

Posted By: Tavaz
720p (HD) / WEB-DL IMDb
Adventure Time S10E05

Adventure Time S10E05
WEB-DL | MKV | 1280x720 | English | H264 @ 1022 kbps | E-AC-3 @ 224 kbps | 11 min 18 s | 101 MiB
Subtitles: English
Genre: Animation, Comedy, Fantasy

Adventure Time is an American animated television series created by Pendleton Ward for Cartoon Network. The series follows the adventures of Finn, a human boy, and his best friend and adoptive brother Jake, a dog with magical powers to change shape and grow and shrink at will. Finn and Jake live in the post-apocalyptic Land of Ooo. Along the way, they interact with the other main characters of the show: Princess Bubblegum, The Ice King, and Marceline the Vampire Queen.

Adventure.Time.S10E05.Seventeen.720p.AMZN.WEB-DL.DD2.0.H.264-CtrlHD.mkv (100.9 MB)



General
Unique ID : 197332776199055675697595551657257746716 (0x9474E907650464DFFEC0CFB05E62411C)
Complete name : ./Adventure.Time.S10E05.Seventeen.720p.AMZN.WEB-DL.DD2.0.H.264-CtrlHD.mkv
Format : Matroska
Format version : Version 4 / Version 2
File size : 101 MiB
Duration : 11 min 18 s
Overall bit rate mode : Variable
Overall bit rate : 1 248 kb/s
Encoded date : UTC 2017-12-18 13:19:59
Writing application : mkvmerge v19.0.0 ('Brave Captain') 64-bit
Writing library : libebml v1.3.5 + libmatroska v1.4.8

Video
ID : 1
Format : AVC
Format/Info : Advanced Video Codec
Format profile : High@L3.1
Format settings : CABAC / 5 Ref Frames
Format settings, CABAC : Yes
Format settings, RefFrames : 5 frames
Codec ID : V_MPEG4/ISO/AVC
Duration : 11 min 18 s
Bit rate mode : Variable
Bit rate : 1 022 kb/s
Maximum bit rate : 4 500 kb/s
Width : 1 280 pixels
Height : 720 pixels
Display aspect ratio : 16:9
Frame rate mode : Constant
Frame rate : 23.976 (24000/1001) FPS
Color space : YUV
Chroma subsampling : 4:2:0
Bit depth : 8 bits
Scan type : Progressive
Bits/(Pixel*Frame) : 0.046
Stream size : 82.7 MiB (82%)
Language : English
Default : Yes
Forced : No
Color range : Limited
Color primaries : BT.709
Transfer characteristics : BT.709
Matrix coefficients : BT.709

Audio
ID : 2
Format : E-AC-3
Format/Info : Enhanced Audio Coding 3
Format settings, Endianness : Big
Codec ID : A_EAC3
Duration : 11 min 18 s
Bit rate mode : Constant
Bit rate : 224 kb/s
Channel(s) : 2 channels
Channel positions : Front: L R
Sampling rate : 48.0 kHz
Frame rate : 187.500 FPS (256 SPF)
Compression mode : Lossy
Stream size : 18.1 MiB (18%)
Language : English
Service kind : Complete Main
Default : Yes
Forced : No

Text
ID : 3
Format : UTF-8
Codec ID : S_TEXT/UTF8
Codec ID/Info : UTF-8 Plain Text
Duration : 11 min 13 s
Bit rate : 75 b/s
Count of elements : 255
Stream size : 6.18 KiB (0%)
Language : English
Default : Yes
Forced : No





Adventure Time S10E05


Adventure Time S10E05


Adventure Time S10E05


Adventure Time S10E05


Adventure Time S10E05

All episodes