Featured TV Shows


Alex, Inc. S01E02

Posted By: Tavaz
720p (HD) / WEBRip IMDb
Alex, Inc. S01E02

Alex, Inc. S01E02
WEBRip | MKV | 1280x720 | English | H264 @ 4888 kbps | E-AC-3 @ 640 kbps | 21 min 38 s | 856 MiB
Genre: Comedy

A brilliant radio journalist, husband, and father of two is about to do something crazy — quit his job and start his own company. He quickly discovers it’s going to be a lot harder than he thought.

Alex.Inc.S01E02.The.Wax.Museum.720p.AMZN.WEBRip.DDP5.1.x264-NTb.mkv (855.8 MB)



General
Unique ID : 276624814619195574043948027493483793311 (0xD01C005AAC69EB804468748FE5F3CB9F)
Complete name : ./Alex.Inc.S01E02.The.Wax.Museum.720p.AMZN.WEBRip.DDP5.1.x264-NTb.mkv
Format : Matroska
Format version : Version 4 / Version 2
File size : 856 MiB
Duration : 21 min 38 s
Overall bit rate : 5 530 kb/s
Encoded date : UTC 2018-04-06 06:35:52
Writing application : mkvmerge v8.8.0 ('Wind at my back') 64bit
Writing library : libebml v1.3.3 + libmatroska v1.4.4

Video
ID : 1
Format : AVC
Format/Info : Advanced Video Codec
Format profile : High@L4.1
Format settings : CABAC / 9 Ref Frames
Format settings, CABAC : Yes
Format settings, RefFrames : 9 frames
Codec ID : V_MPEG4/ISO/AVC
Duration : 21 min 38 s
Bit rate : 4 888 kb/s
Width : 1 280 pixels
Height : 720 pixels
Display aspect ratio : 16:9
Frame rate mode : Constant
Frame rate : 23.976 (24000/1001) FPS
Color space : YUV
Chroma subsampling : 4:2:0
Bit depth : 8 bits
Scan type : Progressive
Bits/(Pixel*Frame) : 0.221
Stream size : 756 MiB (88%)
Writing library : x264 core 148 r2643 5c65704
Encoding settings : cabac=1 / ref=9 / deblock=1:-3:-3 / analyse=0x3:0x133 / me=umh / subme=11 / psy=1 / psy_rd=1.00:0.00 / mixed_ref=1 / me_range=32 / chroma_me=1 / trellis=2 / 8x8dct=1 / cqm=0 / deadzone=21,11 / fast_pskip=1 / chroma_qp_offset=-2 / threads=6 / lookahead_threads=2 / sliced_threads=0 / nr=0 / decimate=0 / interlaced=0 / bluray_compat=0 / constrained_intra=0 / bframes=8 / b_pyramid=2 / b_adapt=2 / b_bias=0 / direct=3 / weightb=1 / open_gop=0 / weightp=2 / keyint=250 / keyint_min=23 / scenecut=40 / intra_refresh=0 / rc=crf / mbtree=0 / crf=17.0 / qcomp=0.60 / qpmin=0 / qpmax=69 / qpstep=4 / ip_ratio=1.40 / pb_ratio=1.30 / aq=3:0.85
Default : Yes
Forced : No

Audio
ID : 2
Format : E-AC-3
Format/Info : Enhanced Audio Coding 3
Format settings, Endianness : Big
Codec ID : A_EAC3
Duration : 21 min 38 s
Bit rate mode : Constant
Bit rate : 640 kb/s
Channel(s) : 6 channels
Channel positions : Front: L C R, Side: L R, LFE
Sampling rate : 48.0 kHz
Frame rate : 187.500 FPS (256 SPF)
Compression mode : Lossy
Stream size : 99.1 MiB (12%)
Language : English
Service kind : Complete Main
Default : Yes
Forced : No





Alex, Inc. S01E02


Alex, Inc. S01E02


Alex, Inc. S01E02


Alex, Inc. S01E02


Alex, Inc. S01E02

All episodes