Featured TV Shows


Alex, Inc. S01E03

Posted By: Tavaz
1080p (FullHD) / WEBRip IMDb
Alex, Inc. S01E03

Alex, Inc. S01E03
WEBRip | MKV | 1920x1080 | English | H264 @ 11611 kbps | E-AC-3 @ 640 kbps | 21 min 8 s | 1.81 GiB
Subtitles: English
Genre: Comedy

A brilliant radio journalist, husband, and father of two is about to do something crazy — quit his job and start his own company. He quickly discovers it’s going to be a lot harder than he thought.

935baafbd7104a67b4420adf9e7d7a8d.mkv (1.8 GB)



General
Unique ID : 285911549188116412301141264646772308655 (0xD7188FB817433C7F8698A84950433AAF)
Complete name : ./935baafbd7104a67b4420adf9e7d7a8d.mkv
Format : Matroska
Format version : Version 4 / Version 2
File size : 1.81 GiB
Duration : 21 min 8 s
Overall bit rate mode : Variable
Overall bit rate : 12.3 Mb/s
Encoded date : UTC 2018-04-12 12:20:32
Writing application : mkvmerge v8.8.0 ('Wind at my back') 64bit
Writing library : libebml v1.3.3 + libmatroska v1.4.4

Video
ID : 1
Format : AVC
Format/Info : Advanced Video Codec
Format profile : High@L4
Format settings : CABAC / 4 Ref Frames
Format settings, CABAC : Yes
Format settings, RefFrames : 4 frames
Codec ID : V_MPEG4/ISO/AVC
Duration : 21 min 8 s
Bit rate mode : Variable
Bit rate : 11.6 Mb/s
Maximum bit rate : 15.0 Mb/s
Width : 1 920 pixels
Height : 1 080 pixels
Display aspect ratio : 16:9
Frame rate mode : Constant
Frame rate : 23.976 (24000/1001) FPS
Color space : YUV
Chroma subsampling : 4:2:0
Bit depth : 8 bits
Scan type : Progressive
Bits/(Pixel*Frame) : 0.234
Stream size : 1.71 GiB (95%)
Default : Yes
Forced : No
Color range : Limited
Color primaries : BT.709
Transfer characteristics : BT.709
Matrix coefficients : BT.709

Audio
ID : 2
Format : E-AC-3
Format/Info : Enhanced Audio Coding 3
Format settings, Endianness : Big
Codec ID : A_EAC3
Duration : 21 min 8 s
Bit rate mode : Constant
Bit rate : 640 kb/s
Channel(s) : 6 channels
Channel positions : Front: L C R, Side: L R, LFE
Sampling rate : 48.0 kHz
Frame rate : 187.500 FPS (256 SPF)
Compression mode : Lossy
Stream size : 96.8 MiB (5%)
Language : English
Service kind : Complete Main
Default : Yes
Forced : No

Text
ID : 3
Format : UTF-8
Codec ID : S_TEXT/UTF8
Codec ID/Info : UTF-8 Plain Text
Duration : 20 min 59 s
Bit rate : 124 b/s
Count of elements : 560
Stream size : 19.1 KiB (0%)
Title : SDH
Language : English
Default : No
Forced : No





Alex, Inc. S01E03


Alex, Inc. S01E03


Alex, Inc. S01E03


Alex, Inc. S01E03


Alex, Inc. S01E03

All episodes