Featured TV Shows


Alex, Inc. S01E04

Posted By: Tavaz
1080p (FullHD) / WEBRip IMDb
Alex, Inc. S01E04

Alex, Inc. S01E04
WEBRip | MKV | 1920x1080 | English | H264 @ 4794 kbps | AC-3 @ 384 kbps | 20 min 46 s | 785 MiB
Subtitles: Swedish, Danish, Finnish, Norwegian
Genre: Comedy

A brilliant radio journalist, husband, and father of two is about to do something crazy — quit his job and start his own company. He quickly discovers it’s going to be a lot harder than he thought.

049e8f0ab6374beb93feef6bc7ce0d29.mkv (784.8 MB)



General
Unique ID : 106846141361242317097560090282027082531 (0x5061D17CB297CE5A25DB8F7291636323)
Complete name : ./049e8f0ab6374beb93feef6bc7ce0d29.mkv
Format : Matroska
Format version : Version 4 / Version 2
File size : 785 MiB
Duration : 20 min 46 s
Overall bit rate mode : Variable
Overall bit rate : 5 284 kb/s
Writing application : mkvmerge v20.0.0 ('I Am The Sun') 64-bit
Writing library : libebml v1.3.5 + libmatroska v1.4.8

Video
ID : 1
Format : AVC
Format/Info : Advanced Video Codec
Format profile : High@L4.1
Format settings : CABAC / 2 Ref Frames
Format settings, CABAC : Yes
Format settings, RefFrames : 2 frames
Codec ID : V_MPEG4/ISO/AVC
Duration : 20 min 46 s
Bit rate mode : Variable
Bit rate : 4 794 kb/s
Maximum bit rate : 7 200 kb/s
Width : 1 920 pixels
Height : 1 080 pixels
Display aspect ratio : 16:9
Frame rate mode : Constant
Frame rate : 25.000 FPS
Color space : YUV
Chroma subsampling : 4:2:0
Bit depth : 8 bits
Scan type : Progressive
Bits/(Pixel*Frame) : 0.092
Stream size : 712 MiB (91%)
Default : Yes
Forced : No

Audio
ID : 2
Format : AC-3
Format/Info : Audio Coding 3
Format settings, Endianness : Big
Codec ID : A_AC3
Duration : 20 min 46 s
Bit rate mode : Constant
Bit rate : 384 kb/s
Channel(s) : 6 channels
Channel positions : Front: L C R, Side: L R, LFE
Sampling rate : 48.0 kHz
Frame rate : 31.250 FPS (1536 SPF)
Bit depth : 16 bits
Compression mode : Lossy
Stream size : 57.0 MiB (7%)
Service kind : Complete Main
Default : Yes
Forced : No

Text #1
ID : 3
Format : UTF-8
Codec ID : S_TEXT/UTF8
Codec ID/Info : UTF-8 Plain Text
Title : fi
Language : Finnish
Default : No
Forced : No

Text #2
ID : 4
Format : UTF-8
Codec ID : S_TEXT/UTF8
Codec ID/Info : UTF-8 Plain Text
Title : sv
Language : Swedish
Default : No
Forced : No

Text #3
ID : 5
Format : UTF-8
Codec ID : S_TEXT/UTF8
Codec ID/Info : UTF-8 Plain Text
Title : da
Language : Danish
Default : No
Forced : No

Text #4
ID : 6
Format : UTF-8
Codec ID : S_TEXT/UTF8
Codec ID/Info : UTF-8 Plain Text
Title : no
Language : Norwegian
Default : No
Forced : No





Alex, Inc. S01E04


Alex, Inc. S01E04


Alex, Inc. S01E04


Alex, Inc. S01E04


Alex, Inc. S01E04

All episodes