Featured TV Shows


Alex, Inc. S01E05

Posted By: Tavaz
1080p (FullHD) / WEBRip IMDb
Alex, Inc. S01E05

Alex, Inc. S01E05
WEB-DL | MKV | 1920x1080 | English | H264 @ 6047 kbps | E-AC-3 @ 640 kbps | 21 min 36 s | 1.01 GiB
Subtitles: English
Genre: Comedy

A brilliant radio journalist, husband, and father of two is about to do something crazy — quit his job and start his own company. He quickly discovers it’s going to be a lot harder than he thought.

b4ebb2579f1e467285eaa8059917da71.mkv (1.0 GB)



General
Unique ID : 108019566390829456547206647287437146323 (0x5143CFCECB5EC02D9E59EDA3762938D3)
Complete name : ./b4ebb2579f1e467285eaa8059917da71.mkv
Format : Matroska
Format version : Version 4 / Version 2
File size : 1.01 GiB
Duration : 21 min 36 s
Overall bit rate mode : Variable
Overall bit rate : 6 690 kb/s
Encoded date : UTC 2018-04-19 11:59:22
Writing application : mkvmerge v8.8.0 ('Wind at my back') 64bit
Writing library : libebml v1.3.3 + libmatroska v1.4.4

Video
ID : 1
Format : AVC
Format/Info : Advanced Video Codec
Format profile : High@L4
Format settings : CABAC / 4 Ref Frames
Format settings, CABAC : Yes
Format settings, RefFrames : 4 frames
Codec ID : V_MPEG4/ISO/AVC
Duration : 21 min 36 s
Bit rate mode : Variable
Bit rate : 6 048 kb/s
Maximum bit rate : 15.0 Mb/s
Width : 1 920 pixels
Height : 1 080 pixels
Display aspect ratio : 16:9
Frame rate mode : Constant
Frame rate : 23.976 (24000/1001) FPS
Color space : YUV
Chroma subsampling : 4:2:0
Bit depth : 8 bits
Scan type : Progressive
Bits/(Pixel*Frame) : 0.122
Stream size : 935 MiB (90%)
Default : Yes
Forced : No
Color range : Limited
Color primaries : BT.709
Transfer characteristics : BT.709
Matrix coefficients : BT.709

Audio
ID : 2
Format : E-AC-3
Format/Info : Enhanced Audio Coding 3
Format settings, Endianness : Big
Codec ID : A_EAC3
Duration : 21 min 36 s
Bit rate mode : Constant
Bit rate : 640 kb/s
Channel(s) : 6 channels
Channel positions : Front: L C R, Side: L R, LFE
Sampling rate : 48.0 kHz
Frame rate : 187.500 FPS (256 SPF)
Compression mode : Lossy
Stream size : 99.0 MiB (10%)
Language : English
Service kind : Complete Main
Default : Yes
Forced : No

Text
ID : 3
Format : UTF-8
Codec ID : S_TEXT/UTF8
Codec ID/Info : UTF-8 Plain Text
Duration : 21 min 28 s
Bit rate : 116 b/s
Count of elements : 564
Stream size : 18.4 KiB (0%)
Title : SDH
Language : English
Default : No
Forced : No





Alex, Inc. S01E05


Alex, Inc. S01E05


Alex, Inc. S01E05


Alex, Inc. S01E05


Alex, Inc. S01E05

All episodes