Featured TV Shows


Alex, Inc. S01E08

Posted By: Tavaz
1080p (FullHD) / WEBRip IMDb
Alex, Inc. S01E08

Alex, Inc. S01E08
WEBRip | MKV | 1920x1080 | English | H264 @ 4471 kbps | AC-3 @ 384 kbps | 19 min 13 s | 681 MiB
Genre: Comedy

A brilliant radio journalist, husband, and father of two is about to do something crazy — quit his job and start his own company. He quickly discovers it’s going to be a lot harder than he thought.

8f25ea26189e43ef96aca46f5ab08ea1.mkv (681.2 MB)



General
Unique ID : 106930830619610190479233694818488666190 (0x507220FD6AFD3487712569228AB9C84E)
Complete name : ./8f25ea26189e43ef96aca46f5ab08ea1.mkv
Format : Matroska
Format version : Version 4 / Version 2
File size : 681 MiB
Duration : 19 min 13 s
Overall bit rate mode : Variable
Overall bit rate : 4 954 kb/s
Writing application : mkvmerge v20.0.0 ('I Am The Sun') 64-bit
Writing library : libebml v1.3.5 + libmatroska v1.4.8

Video
ID : 1
Format : AVC
Format/Info : Advanced Video Codec
Format profile : High@L4.1
Format settings : CABAC / 2 Ref Frames
Format settings, CABAC : Yes
Format settings, RefFrames : 2 frames
Codec ID : V_MPEG4/ISO/AVC
Duration : 19 min 13 s
Bit rate mode : Variable
Bit rate : 4 472 kb/s
Maximum bit rate : 7 200 kb/s
Width : 1 920 pixels
Height : 1 080 pixels
Display aspect ratio : 16:9
Frame rate mode : Constant
Frame rate : 25.000 FPS
Color space : YUV
Chroma subsampling : 4:2:0
Bit depth : 8 bits
Scan type : Progressive
Bits/(Pixel*Frame) : 0.086
Stream size : 615 MiB (90%)
Default : Yes
Forced : No

Audio
ID : 2
Format : AC-3
Format/Info : Audio Coding 3
Format settings, Endianness : Big
Codec ID : A_AC3
Duration : 19 min 13 s
Bit rate mode : Constant
Bit rate : 384 kb/s
Channel(s) : 6 channels
Channel positions : Front: L C R, Side: L R, LFE
Sampling rate : 48.0 kHz
Frame rate : 31.250 FPS (1536 SPF)
Bit depth : 16 bits
Compression mode : Lossy
Stream size : 52.8 MiB (8%)
Service kind : Complete Main
Default : Yes
Forced : No





Alex, Inc. S01E08


Alex, Inc. S01E08


Alex, Inc. S01E08


Alex, Inc. S01E08


Alex, Inc. S01E08

All episodes